Потомок / Gwigongja (The Childe) (Пак Хун-джон) [2023 г., боевик, криминал, WEB-DL-1080p][MVO,AVO]

Страницы:  1

Ответить
Автор
Сообщение

SkyMac


Потомок / Gwigongja (The Childe)- Год выпуска: 2023
Производство: Южная Корея / Next Entertainment World, Goldmoon Film
Жанр: боевик, криминал
Продолжительность: 01:57:47
Перевод: профессиональный многоголосый, авторский одноголосый
Русские субтитры: английские, корейские (хардсаб на иностранную речь)
Режиссер: Пак Хун-джон
Продюсер: Пак Хун-джон, Ён Ён-щик, Чан Гён-ик
Сценарий: Пак Хун-джон
Премьера: 21 июня 2023
IMDB: 7.1
Kinopoisk: 7.2
В ролях: Ким Сон-хо, Кан Тхэ-джу, Кан У Ким, Ко А-ра, Квон Хёк-хён, Джастин Джон Харви
Описание:
Филиппинский парень, рожденный от отца-корейца и матери-филиппинки, мечтает стать боксером. Он отправляется в Южную Корею, чтобы найти бросившего его отца, но в одночасье он становится мишенью для многих людей, преследующих свои цели.
Качество: WEB-DL 1080p
Формат: MP4
Видео кодек: H.264
Аудио кодек: AAC
Видео: AVC/H.264, 1920x1080, 8000 kbps
Аудио 1: AAC, 2 ch, 48 kHz, 217 Kbps | Русский (MVO, TVShows)
Аудио 2: AAC, 2 ch, 48 kHz, 229 Kbps | Русский (AVO, Ю. Сербин 18 +)
Аудио 3: AAC, 2 ch, 48 kHz, 230 Kbps | Корейский

MediaInfo:

Код:
Общее
Полное имя                               : /Users/admin/Movies/The Gwigongja (2023) WEB-DL [1080p].m4v
Формат                                   : MPEG-4
Идентификатор кодека                     : M4V  (M4V /M4A /mp42/isom)
Размер файла                             : 7,14 Гбайт
Продолжительность                        : 1 ч. 57 м.
Режим общего битрейта                    : Переменный
Общий поток                              : 8 683 Кбит/сек
Частота кадров                           : 23,976 кадра/сек
Название фильма                          : ???
Исполнитель                              : Park Hoon-jung
Композитор                               : Mowg
Режиссёр                                 : Park Hoon-jung
Исполнитель                              : Kim Seon-ho / Kang Tae-ju / Kim Kang-woo / Go Ara / Jung Lael / Heo Joon-seok / Choi Jung-woo / Lee Ki-young / Noreen Joyce Guerra
Сценарист                                : Park Hoon-jung
Продюсер                                 : Park Hoon-jung / Yeon Young-sik
Студия-производитель                     : Next Entertainment World, Goldmoon Film, Studio & New
Жанр                                     : триллер, боевик, комедия
Тип содержимого                          : Short Film
Описание                                 : Мальчик дерется на нелегальных боксерских стадионах на Филиппинах и ищет своего отца-корейца, чтобы собрать деньги на операцию его больной матери-филиппинки. Однажды он получает сообщение со стороны своего корейского отца и летит в Южную Корею, чтобы встретиться с ним. Однако путешествие полно невзгод, поскольку его преследуют дитя, загадочная женщина и сын его корейского отца.
Дата записи                              : 2023-06-21 12:00:00 UTC
Дата кодирования                         : 2023-08-22 11:20:31 UTC
Дата пометки                             : 2023-08-22 11:25:12 UTC
Обложка                                  : Yes
ContentRating                            : mpaa|NR|000|
Видео
Идентификатор                            : 1
Формат                                   : AVC
Формат/Информация                        : Advanced Video Codec
Профиль формата                          : Main@L4
Настройки формата                        : CABAC / 2 Ref Frames
Параметр CABAC формата                   : Да
Параметр RefFrames формата               : 2 кадра
Параметр GOP формата                     : M=1, N=30
Идентификатор кодека                     : avc1
Идентификатор кодека/Информация          : Advanced Video Coding
Продолжительность                        : 1 ч. 57 м.
Вид битрейта                             : Постоянный
Битрейт                                  : 8 000 Кбит/сек
Ширина                                   : 1 920 пикселей
Высота                                   : 1 080 пикселей
Соотношение сторон                       : 16:9
Режим частоты кадров                     : Переменный
Частота кадров                           : 23,976 (24000/1001) кадра/сек
Минимальная частота кадров               : 23,810 кадра/сек
Максимальная частота кадров              : 24,390 кадра/сек
Цветовое пространство                    : YUV
Субдискретизация насыщенности            : 4:2:0
Битовая глубина                          : 8 бит
Тип развёртки                            : Прогрессивная
Бит/(Пиксели*Кадры)                      : 0.161
Размер потока                            : 6,58 Гбайт (92%)
Заголовок                                : Korean
Язык                                     : Korean
Дата кодирования                         : 2023-08-22 11:20:31 UTC
Дата пометки                             : 2023-08-22 11:24:20 UTC
Codec configuration box                  : avcC
Аудио #1
Идентификатор                            : 2
Формат                                   : AAC LC
Формат/Информация                        : Advanced Audio Codec Low Complexity
Идентификатор кодека                     : mp4a-40-2
Продолжительность                        : 1 ч. 57 м.
Вид битрейта                             : Переменный
Битрейт                                  : 217 Кбит/сек
Максимальный битрейт                     : 292 Кбит/сек
Каналы                                   : 2 канала
Channel layout                           : L R
Частота                                  : 48,0 КГц
Частота кадров                           : 46,875 кадров/сек (1024 SPF)
Метод сжатия                             : С потерями
Размер потока                            : 183 Мбайт (2%)
Заголовок                                : MVO [TVShows]
Язык                                     : Russian
Service kind                             : Complete Main
Default                                  : Да
Alternate group                          : 1
Дата кодирования                         : 2023-08-22 11:20:31 UTC
Дата пометки                             : 2023-08-22 11:24:20 UTC
Аудио #2
Идентификатор                            : 3
Формат                                   : AAC LC
Формат/Информация                        : Advanced Audio Codec Low Complexity
Идентификатор кодека                     : mp4a-40-2
Продолжительность                        : 1 ч. 57 м.
Вид битрейта                             : Переменный
Битрейт                                  : 229 Кбит/сек
Максимальный битрейт                     : 371 Кбит/сек
Каналы                                   : 2 канала
Channel layout                           : L R
Частота                                  : 48,0 КГц
Частота кадров                           : 46,875 кадров/сек (1024 SPF)
Метод сжатия                             : С потерями
Размер потока                            : 193 Мбайт (3%)
Заголовок                                : AVO [Ю. Сербин]
Язык                                     : Russian
Service kind                             : Supplementary
Default                                  : Нет
Alternate group                          : 1
Дата кодирования                         : 2023-08-22 11:20:31 UTC
Дата пометки                             : 2023-08-22 11:24:20 UTC
Аудио #3
Идентификатор                            : 4
Формат                                   : AAC LC
Формат/Информация                        : Advanced Audio Codec Low Complexity
Идентификатор кодека                     : mp4a-40-2
Продолжительность                        : 1 ч. 57 м.
Продолжительность оригинала              : 1 ч. 57 м.
Вид битрейта                             : Переменный
Битрейт                                  : 230 Кбит/сек
Максимальный битрейт                     : 393 Кбит/сек
Каналы                                   : 2 канала
Channel layout                           : L R
Частота                                  : 44,1 КГц
Частота кадров                           : 43,066 кадра/сек (1024 SPF)
Метод сжатия                             : С потерями
Размер потока                            : 193 Мбайт (3%)
Размер потока оригинала                  : 193 Мбайт (3%)
Заголовок                                : Original
Язык                                     : Korean
Service kind                             : Complete Main
Default                                  : Нет
Alternate group                          : 1
Дата кодирования                         : 2023-08-22 11:20:31 UTC
Дата пометки                             : 2023-08-22 11:25:11 UTC
Текст
Идентификатор                            : 5
Формат                                   : Timed Text
Режим смешивания                         : sbtl
Идентификатор кодека                     : tx3g
Продолжительность                        : 1 ч. 54 м.
Вид битрейта                             : Переменный
Битрейт                                  : 40 бит/сек
Частота кадров                           : 0,302 кадр/сек
Размер потока                            : 33,3 Кбайт (0%)
Заголовок                                : [full]
Язык                                     : English
Service kind                             : Complete Main
Default                                  : Да
Forced                                   : Нет
Alternate group                          : 2
Дата кодирования                         : 2023-08-22 11:20:31 UTC
Дата пометки                             : 2023-08-22 11:24:20 UTC
Count of events                          : 1044

Tunes Meta Tags:

Код:
Name: Gwigongja
Artist: Park Hoon-jung
Media Kind: Movie
HD Video: 1080p
Genre: триллер, боевик, комедия
Release Date: 2023-06-21T12:00:00Z
Description: Мальчик дерется на нелегальных боксерских стадионах на Филиппинах и ищет своего отца-корейца, чтобы собрать деньги на операцию его больной матери-филиппинки. Однажды он получает сообщение со стороны своего корейского отца и летит в Южную Корею, чтобы встретиться с ним. Однако путешествие полно невзгод, поскольку его преследуют дитя, загадочная женщина и сын его корейского отца.
Rating: mpaa|NR|000|
Studio: Next Entertainment World, Goldmoon Film, Studio & New
Cast: Kim Seon-ho, Kang Tae-ju, Kim Kang-woo, Go Ara, Jung Lael, Heo Joon-seok, Choi Jung-woo, Lee Ki-young, Noreen Joyce Guerra
Director: Park Hoon-jung
Producers: Park Hoon-jung, Yeon Young-sik
Screenwriters: Park Hoon-jung
Composer: Mowg

Скриншоты:

-
Релиз подготовлен для просмотра на Apple TV, iPad, iPhone, iPod Touch.
Для просмотра данного релиза на компьютере с ОС Windows рекомендуется использовать VLC media player
Download

Скачать .torrent файл

Сайт не распространяет и не хранит электронные версии произведений, а лишь предоставляет доступ к создаваемому пользователями каталогу ссылок на торрент-файлы, которые содержат только списки хеш-сумм

 
logo
Error