Великая ирония / Coup de chance (Вуди Аллен) [2023 г., мелодрама, триллер, драма, комедия, WEB-DL 1080p]

Страницы:  1

Ответить
Автор
Сообщение

SkyMac


Великая ирония / Coup de chance- Год выпуска: 2023
Производство: США, Франция, Великобритания / Dippermouth, Gravier Productions, Perdido Productions, Petite Fleur Productions
Жанр: мелодрама, триллер, драма, комедия
Продолжительность: 01:32:55
Перевод: профессиональный (полное дублирование)
Русские субтитры: есть
Режиссёр: Вуди Аллен
Продюсер: Эрика Аронсон, Летти Аронсон, Patrick B Lyons
Сценарий: Вуди Аллен
Премьера в мире: 4 сентября 2023
Премьера в России: 28 сентября 2023, «Вольга»
Рейтинг MPAA: PG-13 (детям до 13 лет просмотр нежелателен)
Возраст: 18+ (зрителям, достигшим 18 лет. запрещено для детей)
IMDB: 6.6
Kinopoisk: 6.9
В ролях: Лу де Лааж, Нильс Шнайдер, Анна Лаик, Мельвиль Пупо, Янник Шуара, Гийом де Тонкедек, Уильям Надилам, Эльза Зильберштейн, Арно Вьяр, Жанна Бурно
Описание:
Успешная и несчастливая в браке женщина сталкивается с бывшим одноклассником, которого не видела много лет. Вспомнив беззаботную юность в Нью-Йорке, она решается на роман с обаятельным писателем, который терял от неё голову в школьные годы. Но когда ревнивый муж начинает что-то подозревать, невинная интрижка постепенно превращается в порочную игру, ставкой в которой может быть сама жизнь.
Качество: WEB-DL 1080p
Формат: M4V
Видео кодек: H.264
Аудио кодек: AAC/AC3
Видео: AVC/H.264, 1920x1080, 4734 kbps
Аудио 1: AAC, 2 ch, 48 kHz, 265 Kbps | Русский (Dub, Мосфильм-Мастер)
Аудио 2: AC3, 6 ch, 48 kHz, 448 Kbps | Русский (Dub, Мосфильм-Мастер)

MediaInfo:

Код:
Общее
Полное имя                               : /Volumes/HDD/Movies HDD/Coup de chance (2023) WEB-DL [1080p].m4v
Формат                                   : MPEG-4
Идентификатор кодека                     : M4V  (M4V /M4A /mp42/isom)
Размер файла                             : 3,54 Гбайт
Продолжительность                        : 1 ч. 32 м.
Режим общего битрейта                    : Переменный
Общий поток                              : 5 450 Кбит/сек
Частота кадров                           : 25,000 кадров/сек
Название фильма                          : Великая ирония
Исполнитель                              : Woody Allen
Режиссёр                                 : Woody Allen
Исполнитель                              : Lou de Laâge / Valérie Lemercier / Melvil Poupaud / Niels Schneider / Elsa Zylberstein / Grégory Gadebois / Guillaume de Tonquédec / Jeanne Bournaud / Anne Loiret / Sâm Mirhosseini / Sara Martins / William Nadylam / Arnaud Viard / Philippe Uchan / Alan Risbac / Éric Frey / Samantha Fuller / Emilie Incerti-Formentini / Christophe Kourotchkine / Naidra Ayadi / Constance Dollé / Juliette Plumecocq-Mech / Benoît Forgeard / Laura Malvarosa / Jamel Elgharbi / Bruno Gouery / Isabelle De Hertogh
Сценарист                                : Woody Allen
Продюсер                                 : Letty Aronson
Исполнительный продюсер                  : Adam B. Stern
Студия-производитель                     : Gravier Productions, Perdido Productions, Dippermouth, Petite Fleur Productions
Жанр                                     : комедия, драма, мелодрама
Тип содержимого                          : Short Film
Дата записи                              : 2023-09-15 12:00:00 UTC
Дата кодирования                         : 2024-01-26 08:09:06 UTC
Дата пометки                             : 2024-01-26 08:11:17 UTC
Обложка                                  : Yes
Видео
Идентификатор                            : 1
Формат                                   : AVC
Формат/Информация                        : Advanced Video Codec
Профиль формата                          : High@L4
Настройки формата                        : CABAC / 3 Ref Frames
Параметр CABAC формата                   : Да
Параметр RefFrames формата               : 3 кадра
Параметр GOP формата                     : M=9, N=75
Идентификатор кодека                     : avc1
Идентификатор кодека/Информация          : Advanced Video Coding
Продолжительность                        : 1 ч. 32 м.
Битрейт                                  : 4 734 Кбит/сек
Ширина                                   : 1 920 пикселей
Высота                                   : 960 пикселей
Соотношение сторон                       : 2,000
Режим частоты кадров                     : Постоянный
Частота кадров                           : 25,000 кадров/сек
Цветовое пространство                    : YUV
Субдискретизация насыщенности            : 4:2:0
Битовая глубина                          : 8 бит
Тип развёртки                            : Прогрессивная
Бит/(Пиксели*Кадры)                      : 0.103
Размер потока                            : 3,07 Гбайт (87%)
Язык                                     : French
Дата кодирования                         : 2024-01-26 08:09:06 UTC
Дата пометки                             : 2024-01-26 08:11:16 UTC
Codec configuration box                  : avcC
Аудио #1
Идентификатор                            : 2
Формат                                   : AAC LC
Формат/Информация                        : Advanced Audio Codec Low Complexity
Идентификатор кодека                     : mp4a-40-2
Продолжительность                        : 1 ч. 32 м.
Вид битрейта                             : Переменный
Битрейт                                  : 265 Кбит/сек
Максимальный битрейт                     : 434 Кбит/сек
Каналы                                   : 2 канала
Channel layout                           : L R
Частота                                  : 48,0 КГц
Частота кадров                           : 46,875 кадров/сек (1024 SPF)
Метод сжатия                             : С потерями
Размер потока                            : 174 Мбайт (5%)
Язык                                     : Russian
Default                                  : Да
Alternate group                          : 1
Дата кодирования                         : 2024-01-26 08:09:06 UTC
Дата пометки                             : 2024-01-26 08:11:16 UTC
Fallback From                            : 3
tagc                                     : public.main-program-content
Аудио #2
Идентификатор                            : 3
Формат                                   : AC-3
Формат/Информация                        : Audio Coding 3
Коммерческое название                    : Dolby Digital
Идентификатор кодека                     : ac-3
Продолжительность                        : 1 ч. 32 м.
Вид битрейта                             : Постоянный
Битрейт                                  : 448 Кбит/сек
Каналы                                   : 6 каналов
Channel layout                           : L R C LFE Ls Rs
Частота                                  : 48,0 КГц
Частота кадров                           : 31,250 кадров/сек (1536 SPF)
Метод сжатия                             : С потерями
Размер потока                            : 298 Мбайт (8%)
Язык                                     : Russian
Service kind                             : Complete Main
Default                                  : Inherited From: 2
Alternate group                          : 1
Дата кодирования                         : 2024-01-26 08:09:06 UTC
Дата пометки                             : 2024-01-26 08:11:16 UTC
Fallback To                              : 2
tagc                                     : public.main-program-content
Текст #1
Идентификатор                            : 4
Формат                                   : Timed Text
Режим смешивания                         : sbtl
Идентификатор кодека                     : tx3g
Продолжительность                        : 1 ч. 6 м.
Вид битрейта                             : Переменный
Битрейт                                  : 0 бит/сек
Частота кадров                           : 0,001 кадр/сек
Размер потока                            : 87,0 байт (0%)
Язык                                     : Russian
Default                                  : Да
Forced                                   : Нет
Alternate group                          : 2
Дата кодирования                         : 2024-01-26 08:09:06 UTC
Дата пометки                             : 2024-01-26 08:11:16 UTC
Count of events                          : 2
tagc                                     : public.subtitles.forced-only
Текст #2
Идентификатор                            : 5
Формат                                   : Timed Text
Режим смешивания                         : sbtl
Идентификатор кодека                     : tx3g
Продолжительность                        : 1 ч. 28 м.
Вид битрейта                             : Переменный
Битрейт                                  : 152 бит/сек
Частота кадров                           : 0,699 кадр/сек
Размер потока                            : 98,9 Кбайт (0%)
Язык                                     : Russian
Default                                  : Нет
Forced                                   : Нет
Alternate group                          : 2
Дата кодирования                         : 2024-01-26 08:09:06 UTC
Дата пометки                             : 2024-01-26 08:11:16 UTC
Count of events                          : 1862
tagc                                     : public.main-program-content

Tunes Meta Tags:

Код:
Name: Великая ирония
Artist: Woody Allen
Media Kind: Movie
HD Video: 1080p
Genre: комедия, драма, мелодрама
Release Date: 2023-09-15T12:00:00Z
Studio: Gravier Productions, Perdido Productions, Dippermouth, Petite Fleur Productions
Cast: Lou de Laâge, Valérie Lemercier, Melvil Poupaud, Niels Schneider, Elsa Zylberstein, Grégory Gadebois, Guillaume de Tonquédec, Jeanne Bournaud, Anne Loiret, Sâm Mirhosseini, Sara Martins, William Nadylam, Arnaud Viard, Philippe Uchan, Alan Risbac, Éric Frey, Samantha Fuller, Emilie Incerti-Formentini, Christophe Kourotchkine, Naidra Ayadi, Constance Dollé, Juliette Plumecocq-Mech, Benoît Forgeard, Laura Malvarosa, Jamel Elgharbi, Bruno Gouery, Isabelle De Hertogh
Director: Woody Allen
Producers: Letty Aronson
Executive Producer: Adam B. Stern
Screenwriters: Woody Allen

Скриншоты:

-
Релиз подготовлен для просмотра на Apple TV, iPad, iPhone, iPod Touch.
Для просмотра данного релиза на компьютере с ОС Windows рекомендуется использовать VLC media player
Download

Скачать .torrent файл

Сайт не распространяет и не хранит электронные версии произведений, а лишь предоставляет доступ к создаваемому пользователями каталогу ссылок на торрент-файлы, которые содержат только списки хеш-сумм

 
logo
Error