Феррари / Ferrari (Майкл Манн) [2023 г., биография, драма, спорт, BDRip 1080p][Dub, MVO]

Страницы:  1

Ответить
Автор
Сообщение

SkyMac


Феррари / Ferrari- Год выпуска: 2023
Производство: США, Великобритания, Италия, Китай / Forward Pass, Storyteller Productions, Iervolino & Lady Bacardi Entertainment
Жанр: биография, драма, спорт
Продолжительность: 02:10:10
Перевод: дублированный, профессиональный многоголосый
Русские субтитры: русские (full), английские (forced, SDH)
Режиссёр: Майкл Манн
Продюсер: Трой Кеннеди-Мартин, Брок Йейтс
Сценарий: Мохаммед Аль Турки, Моника Бакарди, Сэмюэл Дж. Браун
Премьера в мире: 31 августа 2023
Премьера в России: 21 декабря 2023, «КарроПрокат»
Рейтинг MPAA: R (лицам до 17 лет обязательно присутствие взрослого)
Возраст: 18+ (зрителям, достигшим 18 лет. запрещено для детей)
IMDB: 6.5
Kinopoisk: 6.6
В ролях: Адам Драйвер, Пенелопа Крус, Шейлин Вудли, Гэбриел Леоне, Джек О’Коннелл, Патрик Демпси, Микеле Савойя, Эрик Хауген, Бен Коллинз, Сара Гадон
Описание:
Модена, 1957 год. Основатель компании-национального достояния Энцо Феррари переживает смерть сына и живёт на два дома — с женой отношения не ладятся, а от давней любовницы у него растёт второй сын. Из-за низких продаж над Ferrari нависает угроза банкротства, а чтобы найти инвестора, Энцо нужно убедить жену дать ему полный контроль над акциями и поднять престиж марки победой в грандиозной гонке на выносливость Mille Miglia.
Качество: BDRip 1080p
Формат: M4V
Видео кодек: H.264
Аудио кодек: AAC/AC3
Видео: AVC/H.264, 1920x804, ~ 11,8 Mbps
Аудио 1: AAC, 2 ch, 48 kHz, 229 Kbps | Русский (Dub, Мосфильм-Мастер)
Аудио 2: AAC, 2 ch, 48 kHz, 221 Kbps | Русский (MVO, NewStudio 18+)
Аудио 3: AAC, 2 ch, 48 kHz, 225 Kbps | Английский
Аудио 4: AC3, 6 ch, 48 kHz, 384 Kbps | Русский (Dub, Мосфильм-Мастер)
Аудио 5: AC3, 6 ch, 48 kHz, 384 Kbps | Русский (MVO, NewStudio 18+)
Аудио 6: AC3, 6 ch, 48 kHz, 640 Kbps | Английский

MediaInfo:

Код:
Общее
Полное имя                               : /Volumes/HDD/Movies HDD/Ferrari (2023) BDRip [1080p].m4v
Формат                                   : MPEG-4
Идентификатор кодека                     : M4V  (M4V /M4A /mp42/isom)
Размер файла                             : 12,6 Гбайт
Продолжительность                        : 2 ч. 10 м.
Режим общего битрейта                    : Переменный
Общий поток                              : 13,9 Мбит/сек
Частота кадров                           : 23,976 кадра/сек
Название фильма                          : Феррари
Исполнитель                              : Michael Mann
Композитор                               : Daniel Pemberton
Режиссёр                                 : Michael Mann
Исполнитель                              : Adam Driver / Pen?lope Cruz / Shailene Woodley / Patrick Dempsey / Jack O'Connell / Gabriel Leone / Giuseppe Festinese / Sarah Gadon / Michele Savoia / Valentina Bell? / Tommaso Basili / Andrea Dolente / Lino Musella / Brett Smrz / Massi Furlan / Peter Arpesella / Giuseppe Russo / Luca Della Valle / Andrea Bruschi / Giuseppe Bonifati / Agnese Brighittini / Samuel Hubinette / Leonardo Caimi / Gianfilippo Grasso / Daniela Piperno / Alessandro Cremona / Derek Hill / Jacopo Bruno / Domenico Fortunato / Damiano Neviani / Franca Abategiovanni / Marino Franchitti / Luciano Miele / Alessandra D'Elia / Giuseppe Attanasio / Marco Maccieri / Andrea Fiorillo / Marc Gen? / Jonathan Burteaux / Massimo Scola / Javier Cornelio Merida / Wyatt Carnel / Tommaso Paolucci / Alessio Cioni / Biagio Caruso / Maurizio Cardillo / Alice Zanini / Lulu Najafi / Uladzislava Keizereva / Edoardo Beraldi / Gabriel Noto / Alfredo Benedettini / Carlo Fei / Robert Steiner / Erik Haugen / Ben Collins / Daniele Carbone / Modesto Menabue / Massimo Bottura / Pietro Corradini / Andrea Volpetti / Francesco Gorga / Pietro Piccinini / Edoardo Golemi / Filippo Marchi
Сценарист                                : Troy Kennedy Martin / Brock Yates
Продюсер                                 : Michael Mann / Lars Sylvest / Laura Rister / John Lesher / Andrea Iervolino / Monika Bacardi / Thomas Hayslip / Gareth West / Thorsten Schumacher / John Friedberg / P.J. van Sandwijk
Исполнительный продюсер                  : Miki Emmrich, Wei Han, Pamela Yates, Adam Driver, Mohammed Al Turki, Artur Galstian, Vahan Yepremyan, Qi Lin, Adam Fogelson, Niels Juul, Michael Fiske, David Thomas Tao, Noah Fogelson, D.C. Cassidy, Neill Hughes, Conor Molony, Shivani Pandya Malhotra, Udaya Sharma, Thomas McLeod
Студия-производитель                     : Forward Pass, Storyteller Productions, STXfilms, Ketchup Entertainment, Esme Grace Media, Cecchi Gori USA
Жанр                                     : история, драма
Тип содержимого                          : Short Film
Дата записи                              : 2023-12-14 12:00:00 UTC
Дата кодирования                         : 2024-03-16 05:38:16 UTC
Дата пометки                             : 2024-03-16 05:46:36 UTC
Обложка                                  : Yes
LongDescription                          : Об автомобилях Ferrari мечтают миллионы, а имеют единицы. Это символ роскошной жизни, известный во всём мире. Но блестящий фасад скрывает трагическую историю основателя компании Энцо Феррари. Семейные проблемы, финансовый кризис, ужасные аварии и даже гнев Ватикана – всё это в своё время преодолел гениальный конструктор и бизнесмен, чтобы вписать своё имя в историю автопрома навсегда...
ContentRating                            : mpaa|R|400|
Видео #1
Идентификатор                            : 1
Формат                                   : AVC
Формат/Информация                        : Advanced Video Codec
Профиль формата                          : High@L4.1
Настройки формата                        : CABAC / 5 Ref Frames
Параметр CABAC формата                   : Да
Параметр RefFrames формата               : 5 кадров
Идентификатор кодека                     : avc1
Идентификатор кодека/Информация          : Advanced Video Coding
Продолжительность                        : 2 ч. 10 м.
Битрейт                                  : 11,8 Мбит/сек
Ширина                                   : 1 920 пикселей
Высота                                   : 804 пикселя
Соотношение сторон                       : 2,40:1
Режим частоты кадров                     : Переменный
Частота кадров                           : 23,976 (24000/1001) кадра/сек
Минимальная частота кадров               : 23,810 кадра/сек
Максимальная частота кадров              : 24,390 кадра/сек
Цветовое пространство                    : YUV
Субдискретизация насыщенности            : 4:2:0
Битовая глубина                          : 8 бит
Тип развёртки                            : Прогрессивная
Бит/(Пиксели*Кадры)                      : 0.319
Размер потока                            : 10,7 Гбайт (85%)
Библиотека кодирования                   : x264 core 164 r3179+58M 2d8d988 encoded by pk5360114 in Russia
Настройки программы                      : cabac=1 / ref=5 / deblock=1:-3:-3 / analyse=0x3:0x133 / me=tesa / subme=11 / psy=1 / fade_compensate=0.00 / psy_rd=1.02:0.00 / mixed_ref=1 / me_range=32 / chroma_me=1 / trellis=2 / 8x8dct=1 / cqm=0 / deadzone=21,11 / fast_pskip=0 / chroma_qp_offset=-2 / threads=25 / lookahead_threads=4 / sliced_threads=0 / nr=0 / decimate=0 / interlaced=0 / bluray_compat=0 / constrained_intra=0 / fgo=0 / bframes=9 / b_pyramid=2 / b_adapt=2 / b_bias=0 / direct=3 / weightb=1 / open_gop=0 / weightp=2 / keyint=240 / keyint_min=23 / scenecut=40 / intra_refresh=0 / rc_lookahead=60 / rc=crf / mbtree=0 / crf=16.5000 / qcomp=0.65 / qpmin=0:0:0 / qpmax=69:69:69 / qpstep=4 / vbv_maxrate=62500 / vbv_bufsize=78125 / crf_max=0.0 / nal_hrd=none / filler=0 / ip_ratio=1.30 / pb_ratio=1.20 / aq=3:0.80 / aq-sensitivity=10.00 / aq-factor=1.00:1.00:1.00:1.00 / aq2=0 / aq3=0
Язык                                     : English
Дата кодирования                         : 2024-03-16 05:38:16 UTC
Дата пометки                             : 2024-03-16 05:46:23 UTC
Цветовой диапазон                        : Limited
Основные цвета                           : BT.709
Характеристики трансфера                 : BT.709
Коэффициенты матрицы                     : BT.709
Menus                                    : 11,12
Codec configuration box                  : avcC
Видео #2
Идентификатор                            : 12
Формат                                   : JPEG
Идентификатор кодека                     : jpeg
Продолжительность                        : 2 ч. 10 м.
Вид битрейта                             : Переменный
Битрейт                                  : 214 бит/сек
Ширина                                   : 640 пикселей
Высота                                   : 268 пикселей
Соотношение сторон                       : 2,40:1
Режим частоты кадров                     : Переменный
Частота кадров                           : 0,001 кадр/сек
Минимальная частота кадров               : 0,001 кадр/сек
Максимальная частота кадров              : 0,003 кадр/сек
Цветовое пространство                    : YUV
Субдискретизация насыщенности            : 4:2:0
Битовая глубина                          : 8 бит
Метод сжатия                             : С потерями
Бит/(Пиксели*Кадры)                      : 1.248
Размер потока                            : 209 Кбайт (0%)
Язык                                     : English
Default                                  : Нет
Дата кодирования                         : 2024-03-16 05:46:35 UTC
Дата пометки                             : 2024-03-16 05:46:35 UTC
Menu For                                 : 1
ColorSpace_ICC                           : RGB
Аудио #1
Идентификатор                            : 2
Формат                                   : AAC LC
Формат/Информация                        : Advanced Audio Codec Low Complexity
Идентификатор кодека                     : mp4a-40-2
Продолжительность                        : 2 ч. 10 м.
Продолжительность оригинала              : 2 ч. 10 м.
Вид битрейта                             : Переменный
Битрейт                                  : 229 Кбит/сек
Максимальный битрейт                     : 394 Кбит/сек
Каналы                                   : 2 канала
Channel layout                           : L R
Частота                                  : 48,0 КГц
Частота кадров                           : 46,875 кадров/сек (1024 SPF)
Метод сжатия                             : С потерями
Размер потока                            : 213 Мбайт (2%)
Размер потока оригинала                  : 213 Мбайт (2%)
Язык                                     : Russian
Default                                  : Да
Alternate group                          : 1
Дата кодирования                         : 2024-03-16 05:38:16 UTC
Дата пометки                             : 2024-03-16 05:41:06 UTC
Fallback From                            : 5
tagc                                     : public.main-program-content
Аудио #2
Идентификатор                            : 3
Формат                                   : AAC LC
Формат/Информация                        : Advanced Audio Codec Low Complexity
Идентификатор кодека                     : mp4a-40-2
Продолжительность                        : 2 ч. 9 м.
Вид битрейта                             : Переменный
Битрейт                                  : 221 Кбит/сек
Максимальный битрейт                     : 374 Кбит/сек
Каналы                                   : 2 канала
Channel layout                           : L R
Частота                                  : 48,0 КГц
Частота кадров                           : 46,875 кадров/сек (1024 SPF)
Метод сжатия                             : С потерями
Размер потока                            : 205 Мбайт (2%)
Язык                                     : Russian
Default                                  : Нет
Alternate group                          : 1
Дата кодирования                         : 2024-03-16 05:38:16 UTC
Дата пометки                             : 2024-03-16 05:46:23 UTC
Fallback From                            : 6
tagc                                     : public.main-program-content
Аудио #3
Идентификатор                            : 4
Формат                                   : AAC LC
Формат/Информация                        : Advanced Audio Codec Low Complexity
Идентификатор кодека                     : mp4a-40-2
Продолжительность                        : 2 ч. 10 м.
Продолжительность оригинала              : 2 ч. 10 м.
Вид битрейта                             : Переменный
Битрейт                                  : 225 Кбит/сек
Максимальный битрейт                     : 433 Кбит/сек
Каналы                                   : 2 канала
Channel layout                           : L R
Частота                                  : 48,0 КГц
Частота кадров                           : 46,875 кадров/сек (1024 SPF)
Метод сжатия                             : С потерями
Размер потока                            : 210 Мбайт (2%)
Размер потока оригинала                  : 210 Мбайт (2%)
Язык                                     : English
Default                                  : Нет
Alternate group                          : 1
Дата кодирования                         : 2024-03-16 05:38:16 UTC
Дата пометки                             : 2024-03-16 05:41:03 UTC
Fallback From                            : 7
tagc                                     : public.main-program-content
Аудио #4
Идентификатор                            : 5
Формат                                   : AC-3
Формат/Информация                        : Audio Coding 3
Коммерческое название                    : Dolby Digital
Идентификатор кодека                     : ac-3
Продолжительность                        : 2 ч. 10 м.
Вид битрейта                             : Постоянный
Битрейт                                  : 384 Кбит/сек
Каналы                                   : 6 каналов
Channel layout                           : L R C LFE Ls Rs
Частота                                  : 48,0 КГц
Частота кадров                           : 31,250 кадров/сек (1536 SPF)
Метод сжатия                             : С потерями
Размер потока                            : 358 Мбайт (3%)
Язык                                     : Russian
Service kind                             : Complete Main
Default                                  : Inherited From: 2
Alternate group                          : 1
Дата кодирования                         : 2024-03-16 05:38:16 UTC
Дата пометки                             : 2024-03-16 05:41:06 UTC
Fallback To                              : 2
tagc                                     : public.main-program-content
Аудио #5
Идентификатор                            : 6
Формат                                   : AC-3
Формат/Информация                        : Audio Coding 3
Коммерческое название                    : Dolby Digital
Идентификатор кодека                     : ac-3
Продолжительность                        : 2 ч. 9 м.
Вид битрейта                             : Постоянный
Битрейт                                  : 384 Кбит/сек
Каналы                                   : 6 каналов
Channel layout                           : L R C LFE Ls Rs
Частота                                  : 48,0 КГц
Частота кадров                           : 31,250 кадров/сек (1536 SPF)
Метод сжатия                             : С потерями
Размер потока                            : 356 Мбайт (3%)
Язык                                     : Russian
Service kind                             : Complete Main
Default                                  : Нет
Alternate group                          : 1
Дата кодирования                         : 2024-03-16 05:38:16 UTC
Дата пометки                             : 2024-03-16 05:46:23 UTC
Fallback To                              : 3
tagc                                     : public.main-program-content
Аудио #6
Идентификатор                            : 7
Формат                                   : AC-3
Формат/Информация                        : Audio Coding 3
Коммерческое название                    : Dolby Digital
Идентификатор кодека                     : ac-3
Продолжительность                        : 2 ч. 10 м.
Вид битрейта                             : Постоянный
Битрейт                                  : 640 Кбит/сек
Каналы                                   : 6 каналов
Channel layout                           : L R C LFE Ls Rs
Частота                                  : 48,0 КГц
Частота кадров                           : 31,250 кадров/сек (1536 SPF)
Метод сжатия                             : С потерями
Размер потока                            : 596 Мбайт (5%)
Язык                                     : English
Service kind                             : Complete Main
Default                                  : Нет
Alternate group                          : 1
Дата кодирования                         : 2024-03-16 05:38:16 UTC
Дата пометки                             : 2024-03-16 05:41:03 UTC
Fallback To                              : 4
tagc                                     : public.main-program-content
Текст #1
Идентификатор                            : 8
Формат                                   : Timed Text
Режим смешивания                         : sbtl
Идентификатор кодека                     : tx3g
Продолжительность                        : 2 ч. 4 м.
Вид битрейта                             : Переменный
Битрейт                                  : 74 бит/сек
Частота кадров                           : 0,337 кадр/сек
Размер потока                            : 67,6 Кбайт (0%)
Язык                                     : Russian
Default                                  : Да
Forced                                   : Нет
Alternate group                          : 2
Дата кодирования                         : 2024-03-16 05:38:16 UTC
Дата пометки                             : 2024-03-16 05:46:24 UTC
Count of events                          : 1260
tagc                                     : public.main-program-content
Текст #2
Идентификатор                            : 9
Формат                                   : Timed Text
Режим смешивания                         : sbtl
Идентификатор кодека                     : tx3g
Продолжительность                        : 2 ч. 3 м.
Вид битрейта                             : Переменный
Битрейт                                  : 47 бит/сек
Частота кадров                           : 0,342 кадр/сек
Размер потока                            : 43,0 Кбайт (0%)
Язык                                     : English
Default                                  : Нет
Forced                                   : Нет
Alternate group                          : 2
Дата кодирования                         : 2024-03-16 05:38:16 UTC
Дата пометки                             : 2024-03-16 05:46:24 UTC
Count of events                          : 1269
tagc                                     : public.main-program-content
Текст #3
Идентификатор                            : 10
Формат                                   : Timed Text
Режим смешивания                         : sbtl
Идентификатор кодека                     : tx3g
Продолжительность                        : 2 ч. 9 м.
Вид битрейта                             : Переменный
Битрейт                                  : 51 бит/сек
Частота кадров                           : 0,374 кадр/сек
Размер потока                            : 48,3 Кбайт (0%)
Язык                                     : English
Default                                  : Нет
Forced                                   : Нет
Alternate group                          : 2
Дата кодирования                         : 2024-03-16 05:38:16 UTC
Дата пометки                             : 2024-03-16 05:46:24 UTC
Count of events                          : 1453
tagc                                     : public.accessibility.transcribes-spoken-dialog
Меню
Идентификатор                            : 11
Формат                                   : Timed Text
Идентификатор кодека                     : text
Продолжительность                        : 2 ч. 10 м.
Язык                                     : English
Дата кодирования                         : 2024-03-16 05:46:24 UTC
Дата пометки                             : 2024-03-16 05:46:24 UTC
Вид битрейта                             : CBR
Menu For                                 : 1
00:00:00.000                             : Chapter 01
00:15:18.960                             : Chapter 02
00:36:30.730                             : Chapter 03
00:53:16.776                             : Chapter 04
01:10:52.373                             : Chapter 05
01:26:14.711                             : Chapter 06
01:45:46.799                             : Chapter 07
02:04:28.920                             : Chapter 08
Вид битрейта                             : Постоянный

Tunes Meta Tags:

Код:
Name: Феррари
Artist: Michael Mann
Media Kind: Movie
HD Video: 1080p
Genre: драма, история
Release Date: 2023-12-14T12:00:00Z
Long Description: Об автомобилях Ferrari мечтают миллионы, а имеют единицы. Это символ роскошной жизни, известный во всём мире. Но блестящий фасад скрывает трагическую историю основателя компании Энцо Феррари. Семейные проблемы, финансовый кризис, ужасные аварии и даже гнев Ватикана – всё это в своё время преодолел гениальный конструктор и бизнесмен, чтобы вписать своё имя в историю автопрома навсегда...
Rating: mpaa|R|400|
Studio: STXfilms, Forward Pass, Storyteller Productions, Ketchup Entertainment, Esme Grace Media/COIL, Cecchi Gori USA, Iervolino & Lady Bacardi Entertainment, Red Sea Fund
Cast: Adam Driver, Pen?lope Cruz, Shailene Woodley, Patrick Dempsey, Jack O'Connell, Gabriel Leone, Giuseppe Festinese, Sarah Gadon, Michele Savoia, Valentina Bell?, Tommaso Basili, Andrea Dolente, Lino Musella, Brett Smrz, Massi Furlan, Peter Arpesella, Giuseppe Russo, Luca Della Valle, Andrea Bruschi, Giuseppe Bonifati, Agnese Brighittini, Samuel Hubinette, Leonardo Caimi, Gianfilippo Grasso, Alex Tonti, Daniela Piperno, Alessandro Cremona, Derek Hill, Jacopo Bruno, Domenico Fortunato, Damiano Neviani, Franca Abategiovanni, Marino Franchitti, Luciano Miele, Alessandra D'Elia, Giuseppe Attanasio, Marco Maccieri, Andrea Fiorillo, Marc Gen?, Jonathan Burteaux, Massimo Scola, Javier Cornelio Merida, Wyatt Carnel, Tommaso Paolucci, Alessio Cioni, Biagio Caruso, Maurizio Cardillo, Alice Zanini, Lulu Najafi, Uladzislava Keizereva, Edoardo Beraldi, Gabriel Noto, Alfredo Benedettini, Carlo Fei, Robert Steiner, Erik Haugen, Ben Collins, Daniele Carbone, Modesto Menabue, Massimo Bottura, Pietro Corradini, Andrea Volpetti, Francesco Gorga, Pietro Piccinini, Edoardo Golemi, Filippo Marchi
Director: Michael Mann
Producers: Michael Mann, Lars Sylvest, Laura Rister, John Lesher, Andrea Iervolino, Monika Bacardi, Thomas Hayslip, Gareth West, Thorsten Schumacher, John Friedberg, P.J. van Sandwijk
Executive Producer: Miki Emmrich, Wei Han, Pamela Yates, Adam Driver, Mohammed Al Turki, Artur Galstian, Vahan Yepremyan, Qi Lin, Adam Fogelson, Niels Juul, Michael Fiske, David Thomas Tao, Noah Fogelson, D.C. Cassidy, Neill Hughes, Conor Molony, Shivani Pandya Malhotra, Udaya Sharma, Thomas McLeod
Screenwriters: Troy Kennedy Martin, Brock Yates
Composer: Daniel Pemberton

Знаете ли вы, что…

• В конце 2015 года на главную роль в фильме взяли Кристиана Бейла . Это стало бы его первой работой у режиссёра Майкла Манна после боевика «Джонни Д.» (2009), однако Бейл из проекта ушёл, решив, что не успеет к началу съёмок набрать вес, и вместо него взяли Хью Джекмана, которого в итоге сменил Адам Драйвер .
• Снять этот фильм Майкл Манн мечтал около 30 лет. Судя по статье 1993 года, Манн хотел снять этот байопик с Робертом Де Ниро после «Последнего из могикан» .
• Адаму Драйверу не разрешили управлять оригинальными гоночными машинами. А вот копиями некоторых автомобилей с открытым верхом Патрику Демпси порулить удалось.

Скриншоты:

-
Релиз подготовлен для просмотра на Apple TV, iPad, iPhone, iPod Touch.
Для просмотра данного релиза на компьютере с ОС Windows рекомендуется использовать VLC media player
Download

Скачать .torrent файл

Сайт не распространяет и не хранит электронные версии произведений, а лишь предоставляет доступ к создаваемому пользователями каталогу ссылок на торрент-файлы, которые содержат только списки хеш-сумм

 

SkyMac


Релиз был обновлён
 
logo
Error