Бешеные Псы / Reservoir Dogs (Квентин Тарантино) [1991 г., криминал, драма, триллер, BDRip 720p][MVO, DVO, AVO]

Страницы:  1

Ответить
Автор
Сообщение

SkyMac


Бешеные Псы / Reservoir Dogs«Let's get the job done»- Год выпуска: 1991
Производство: США / Live Entertainment, Dog Eat Dog Productions Inc.
Жанр: криминал, драма, триллер
Продолжительность: 01:39:22
Перевод: многоголосый профессиональный, двухголосый профессиональный, авторский одноголосый
Режиссёр: Квентин Тарантино
Продюсер: Лоуренс Бендер, Ричард Н. Гладштейн, Монте Хеллман,
Сценарий: Квентин Тарантино, Роджер Эвери
Премьера в мире: 21 января 1992
Премьера в России: февраль 1995, «Аргус-СВ»
Рейтинг MPAA: R (лицам до 17 лет обязательно присутствие взрослого)
Возраст: 18+ (зрителям, достигшим 18 лет. запрещено для детей)
IMDB: 8.3
Kinopoisk: 8.1
В ролях: Харви Кейтель, Тим Рот, Майкл Мэдсен, Крис Пенн, Стив Бушеми, Лоуренс Тирни, Рэнди Брукс, Кирк Балц, Эдвард Банкер, Квентин Тарантино
Описание:
Это должно было стать идеальным преступлением. Задумав ограбить ювелирный магазин, криминальный босс Джо Кэбот собрал вместе шестерых опытных и совершенно незнакомых друг с другом преступников. Но с самого начала всё пошло не так, и обычный грабёж превратился в кровавую бойню.
Качество: BDRip 720p
Формат: M4V
Видео кодек: H.264
Аудио кодек: AAC/AC3
Видео: AVC/H.264, 1280x544, ~ 4500 kbps
Аудио 01: AAC, 2 ch, 48 kHz, 226 Kbps | Русский (MVO, Blu-ray)
Аудио 02: AAC, 2 ch, 48 kHz, 230 Kbps | Русский (DVO, Екатеринбург Арт Home Video)
Аудио 03: AAC, 2 ch, 48 kHz, 215 Kbps | Русский (AVO, Д. Пучков aka Гоблин)
Аудио 04: AAC, 2 ch, 48 kHz, 230 Kbps | Русский (AVO, А. Гаврилов)
Аудио 05: AAC, 2 ch, 48 kHz, 220 Kbps | Русский (AVO, Ю. Живов)
Аудио 06: AAC, 2 ch, 48 kHz, 221 Kbps | Английский
Аудио 07: AC3, 6 ch, 48 kHz, 640 Kbps | Русский (MVO, Blu-ray)
Аудио 08: AC3, 6 ch, 48 kHz, 640 Kbps | Русский (DVO, Екатеринбург Арт Home Video)
Аудио 09: AC3, 6 ch, 48 kHz, 384 Kbps | Русский (AVO, Д. Пучков aka Гоблин)
Аудио 10: AC3, 6 ch, 48 kHz, 448 Kbps | Русский (AVO, А. Гаврилов)
Аудио 11: AC3, 6 ch, 48 kHz, 640 Kbps | Русский (AVO, Ю. Живов)
Аудио 12: AC3, 6 ch, 48 kHz, 640 Kbps | Английский

MediaInfo:

Код:
Общее
Полное имя                               : /Volumes/HDD/Movies HDD/Reservoir Dogs (1991) BDRip [720p].m4v
Формат                                   : MPEG-4
Идентификатор кодека                     : M4V  (M4V /M4A /mp42/isom)
Размер файла                             : 6,27 Гбайт
Продолжительность                        : 1 ч. 39 м.
Режим общего битрейта                    : Переменный
Общий поток                              : 9 061 Кбит/сек
Частота кадров                           : 23,976 кадра/сек
Название фильма                          : Бешеные псы Reservoir Dogs
Исполнитель                              : Quentin Tarantino
Режиссёр                                 : Quentin Tarantino
Исполнитель                              : Harvey Keitel / Tim Roth / Michael Madsen / Chris Penn / Steve Buscemi
Сценарист                                : Quentin Tarantino
Продюсер                                 : Lawrence Bender / Richard N. Gladstein / Monte Hellman / Ronna B. Wallace
Студия-производитель                     : Lionsgate
Жанр                                     : Драма
Тип содержимого                          : Short Film
Дата записи                              : 1992-10-23 07:00:00 UTC
Дата кодирования                         : 2020-01-21 21:02:32 UTC
Дата пометки                             : 2020-01-21 21:11:51 UTC
Авторское право                          : © 1991 Dog Eat Dog Productions, Inc.
Обложка                                  : Yes
LongDescription                          : Четверо идеальных убийц. Одно идеальное преступление. Критики превозносили этот блестящий, классический американский гангстерский фильм сценариста и режиссера Квентина Тарантино за грубую силу и неукротимую жестокость. Это были совершенно незнакомые друг с другом люди, собравшиеся, чтобы осуществить одно совершенное ограбление. Когда простой грабеж оборачивается кровавой засадой, безжалостные убийцы понимают, что один из них - стукач. Но кто?
HDVideo                                  : Yes
AppleStoreCountry                        : Russia
AppleStoreCatalogID                      : 950560363
ContentRating                            : ru-movie|16+|375|
Видео
Идентификатор                            : 1
Формат                                   : AVC
Формат/Информация                        : Advanced Video Codec
Профиль формата                          : High@L4.1
Настройки формата                        : CABAC / 11 Ref Frames
Параметр CABAC формата                   : Да
Параметр RefFrames формата               : 11 кадров
Идентификатор кодека                     : avc1
Идентификатор кодека/Информация          : Advanced Video Coding
Продолжительность                        : 1 ч. 39 м.
Битрейт                                  : 4 500 Кбит/сек
Ширина                                   : 1 280 пикселей
Высота                                   : 544 пикселя
Соотношение сторон                       : 2,35:1
Режим частоты кадров                     : Переменный
Частота кадров                           : 23,976 (24000/1001) кадра/сек
Минимальная частота кадров               : 23,810 кадра/сек
Максимальная частота кадров              : 24,390 кадра/сек
Цветовое пространство                    : YUV
Субдискретизация насыщенности            : 4:2:0
Битовая глубина                          : 8 бит
Тип развёртки                            : Прогрессивная
Бит/(Пиксели*Кадры)                      : 0.270
Размер потока                            : 3,12 Гбайт (50%)
Библиотека кодирования                   : x264 core 120 r2164 da19765
Настройки программы                      : cabac=1 / ref=11 / deblock=1:-3:-3 / analyse=0x3:0x113 / me=umh / subme=11 / psy=1 / psy_rd=1.00:0.15 / mixed_ref=1 / me_range=64 / chroma_me=1 / trellis=2 / 8x8dct=1 / cqm=0 / deadzone=21,11 / fast_pskip=1 / chroma_qp_offset=-3 / threads=6 / sliced_threads=0 / nr=0 / decimate=1 / interlaced=0 / bluray_compat=0 / constrained_intra=0 / bframes=7 / b_pyramid=2 / b_adapt=2 / b_bias=0 / direct=3 / weightb=1 / open_gop=0 / weightp=2 / keyint=240 / keyint_min=23 / scenecut=40 / intra_refresh=0 / rc=2pass / mbtree=0 / bitrate=4500 / ratetol=1.0 / qcomp=0.60 / qpmin=0 / qpmax=69 / qpstep=4 / cplxblur=20.0 / qblur=0.5 / ip_ratio=1.40 / pb_ratio=1.30 / aq=1:0.80
Язык                                     : English
Дата кодирования                         : 2020-01-21 21:02:32 UTC
Дата пометки                             : 2020-01-21 21:11:49 UTC
Codec configuration box                  : avcC
Аудио #1
Идентификатор                            : 2
Формат                                   : AAC LC
Формат/Информация                        : Advanced Audio Codec Low Complexity
Идентификатор кодека                     : mp4a-40-2
Продолжительность                        : 1 ч. 39 м.
Продолжительность оригинала              : 1 ч. 39 м.
Вид битрейта                             : Переменный
Номинальный битрейт                      : 226 Кбит/сек
Максимальный битрейт                     : 401 Кбит/сек
Каналы                                   : 2 канала
Channel layout                           : L R
Частота                                  : 48,0 КГц
Частота кадров                           : 46,875 кадров/сек (1024 SPF)
Метод сжатия                             : С потерями
Размер потока оригинала                  : 160 Мбайт (2%)
Заголовок                                : MVO [Blu-ray]
Язык                                     : Russian
Service kind                             : Complete Main
Default                                  : Да
Alternate group                          : 1
Дата кодирования                         : 2020-01-21 21:02:32 UTC
Дата пометки                             : 2020-01-21 21:11:49 UTC
Fallback From                            : 8
Аудио #2
Идентификатор                            : 3
Формат                                   : AAC LC
Формат/Информация                        : Advanced Audio Codec Low Complexity
Идентификатор кодека                     : mp4a-40-2
Продолжительность                        : 1 ч. 39 м.
Продолжительность оригинала              : 1 ч. 39 м.
Вид битрейта                             : Переменный
Номинальный битрейт                      : 230 Кбит/сек
Максимальный битрейт                     : 342 Кбит/сек
Каналы                                   : 2 канала
Channel layout                           : L R
Частота                                  : 48,0 КГц
Частота кадров                           : 46,875 кадров/сек (1024 SPF)
Метод сжатия                             : С потерями
Размер потока оригинала                  : 163 Мбайт (3%)
Заголовок                                : DVO [Екатеринбург Арт Home Video]
Язык                                     : Russian
Service kind                             : Supplementary
Default                                  : Нет
Alternate group                          : 1
Дата кодирования                         : 2020-01-21 21:02:32 UTC
Дата пометки                             : 2020-01-21 21:11:49 UTC
Fallback From                            : 9
Аудио #3
Идентификатор                            : 4
Формат                                   : AAC LC
Формат/Информация                        : Advanced Audio Codec Low Complexity
Идентификатор кодека                     : mp4a-40-2
Продолжительность                        : 1 ч. 39 м.
Продолжительность оригинала              : 1 ч. 39 м.
Вид битрейта                             : Переменный
Номинальный битрейт                      : 215 Кбит/сек
Максимальный битрейт                     : 380 Кбит/сек
Каналы                                   : 2 канала
Channel layout                           : L R
Частота                                  : 48,0 КГц
Частота кадров                           : 46,875 кадров/сек (1024 SPF)
Метод сжатия                             : С потерями
Размер потока оригинала                  : 152 Мбайт (2%)
Заголовок                                : AVO [Дмитрий Пучков aka Гоблин]
Язык                                     : Russian
Service kind                             : Supplementary
Default                                  : Нет
Alternate group                          : 1
Дата кодирования                         : 2020-01-21 21:02:32 UTC
Дата пометки                             : 2020-01-21 21:11:49 UTC
Fallback From                            : 10
Аудио #4
Идентификатор                            : 5
Формат                                   : AAC LC
Формат/Информация                        : Advanced Audio Codec Low Complexity
Идентификатор кодека                     : mp4a-40-2
Продолжительность                        : 1 ч. 39 м.
Продолжительность оригинала              : 1 ч. 39 м.
Вид битрейта                             : Переменный
Номинальный битрейт                      : 230 Кбит/сек
Максимальный битрейт                     : 413 Кбит/сек
Каналы                                   : 2 канала
Channel layout                           : L R
Частота                                  : 48,0 КГц
Частота кадров                           : 46,875 кадров/сек (1024 SPF)
Метод сжатия                             : С потерями
Размер потока оригинала                  : 163 Мбайт (3%)
Заголовок                                : AVO [Андрей Гаврилов]
Язык                                     : Russian
Service kind                             : Supplementary
Default                                  : Нет
Alternate group                          : 1
Дата кодирования                         : 2020-01-21 21:02:32 UTC
Дата пометки                             : 2020-01-21 21:11:49 UTC
Fallback From                            : 11
Аудио #5
Идентификатор                            : 6
Формат                                   : AAC LC
Формат/Информация                        : Advanced Audio Codec Low Complexity
Идентификатор кодека                     : mp4a-40-2
Продолжительность                        : 1 ч. 39 м.
Продолжительность оригинала              : 1 ч. 39 м.
Вид битрейта                             : Переменный
Номинальный битрейт                      : 220 Кбит/сек
Максимальный битрейт                     : 411 Кбит/сек
Каналы                                   : 2 канала
Channel layout                           : L R
Частота                                  : 48,0 КГц
Частота кадров                           : 46,875 кадров/сек (1024 SPF)
Метод сжатия                             : С потерями
Размер потока оригинала                  : 156 Мбайт (2%)
Заголовок                                : AVO [Юрий Живов]
Язык                                     : Russian
Service kind                             : Supplementary
Default                                  : Нет
Alternate group                          : 1
Дата кодирования                         : 2020-01-21 21:02:32 UTC
Дата пометки                             : 2020-01-21 21:11:49 UTC
Fallback From                            : 12
Аудио #6
Идентификатор                            : 7
Формат                                   : AAC LC
Формат/Информация                        : Advanced Audio Codec Low Complexity
Идентификатор кодека                     : mp4a-40-2
Продолжительность                        : 1 ч. 39 м.
Продолжительность оригинала              : 1 ч. 39 м.
Вид битрейта                             : Переменный
Номинальный битрейт                      : 221 Кбит/сек
Максимальный битрейт                     : 410 Кбит/сек
Каналы                                   : 2 канала
Channel layout                           : L R
Частота                                  : 48,0 КГц
Частота кадров                           : 46,875 кадров/сек (1024 SPF)
Метод сжатия                             : С потерями
Размер потока оригинала                  : 157 Мбайт (2%)
Заголовок                                : Original
Язык                                     : English
Service kind                             : Complete Main
Default                                  : Нет
Alternate group                          : 1
Дата кодирования                         : 2020-01-21 21:02:32 UTC
Дата пометки                             : 2020-01-21 21:11:49 UTC
Fallback From                            : 13
Аудио #7
Идентификатор                            : 8
Формат                                   : AC-3
Формат/Информация                        : Audio Coding 3
Коммерческое название                    : Dolby Digital
Идентификатор кодека                     : ac-3
Продолжительность                        : 1 ч. 39 м.
Продолжительность оригинала              : 1 ч. 39 м.
Вид битрейта                             : Постоянный
Битрейт                                  : 640 Кбит/сек
Каналы                                   : 6 каналов
Channel layout                           : L R C LFE Ls Rs
Частота                                  : 48,0 КГц
Частота кадров                           : 31,250 кадров/сек (1536 SPF)
Метод сжатия                             : С потерями
Размер потока                            : 454 Мбайт (7%)
Размер потока оригинала                  : 454 Мбайт (7%)
Заголовок                                : MVO [Blu-ray]
Язык                                     : Russian
Service kind                             : Complete Main / Complete Main
Default                                  : Inherited From: 2
Alternate group                          : 1
Дата кодирования                         : 2020-01-21 21:02:32 UTC
Дата пометки                             : 2020-01-21 21:11:49 UTC
Fallback To                              : 2
Аудио #8
Идентификатор                            : 9
Формат                                   : AC-3
Формат/Информация                        : Audio Coding 3
Коммерческое название                    : Dolby Digital
Идентификатор кодека                     : ac-3
Продолжительность                        : 1 ч. 39 м.
Продолжительность оригинала              : 1 ч. 39 м.
Вид битрейта                             : Постоянный
Битрейт                                  : 384 Кбит/сек
Каналы                                   : 6 каналов
Channel layout                           : L R C LFE Ls Rs
Частота                                  : 48,0 КГц
Частота кадров                           : 31,250 кадров/сек (1536 SPF)
Метод сжатия                             : С потерями
Размер потока                            : 272 Мбайт (4%)
Размер потока оригинала                  : 272 Мбайт (4%)
Заголовок                                : DVO [Екатеринбург Арт Home Video]
Язык                                     : Russian
Service kind                             : Complete Main / Supplementary
Default                                  : Нет
Alternate group                          : 1
Дата кодирования                         : 2020-01-21 21:02:32 UTC
Дата пометки                             : 2020-01-21 21:11:49 UTC
Fallback To                              : 3
Аудио #9
Идентификатор                            : 10
Формат                                   : AC-3
Формат/Информация                        : Audio Coding 3
Коммерческое название                    : Dolby Digital
Идентификатор кодека                     : ac-3
Продолжительность                        : 1 ч. 39 м.
Продолжительность оригинала              : 1 ч. 39 м.
Вид битрейта                             : Постоянный
Битрейт                                  : 448 Кбит/сек
Каналы                                   : 6 каналов
Channel layout                           : L R C LFE Ls Rs
Частота                                  : 48,0 КГц
Частота кадров                           : 31,250 кадров/сек (1536 SPF)
Метод сжатия                             : С потерями
Размер потока                            : 318 Мбайт (5%)
Размер потока оригинала                  : 318 Мбайт (5%)
Заголовок                                : AVO [Дмитрий Пучков aka Гоблин]
Язык                                     : Russian
Service kind                             : Complete Main / Supplementary
Default                                  : Нет
Alternate group                          : 1
Дата кодирования                         : 2020-01-21 21:02:32 UTC
Дата пометки                             : 2020-01-21 21:11:49 UTC
Fallback To                              : 4
Аудио #10
Идентификатор                            : 11
Формат                                   : AC-3
Формат/Информация                        : Audio Coding 3
Коммерческое название                    : Dolby Digital
Идентификатор кодека                     : ac-3
Продолжительность                        : 1 ч. 39 м.
Продолжительность оригинала              : 1 ч. 39 м.
Вид битрейта                             : Постоянный
Битрейт                                  : 448 Кбит/сек
Каналы                                   : 6 каналов
Channel layout                           : L R C LFE Ls Rs
Частота                                  : 48,0 КГц
Частота кадров                           : 31,250 кадров/сек (1536 SPF)
Метод сжатия                             : С потерями
Размер потока                            : 318 Мбайт (5%)
Размер потока оригинала                  : 318 Мбайт (5%)
Заголовок                                : AVO [Андрей Гаврилов]
Язык                                     : Russian
Service kind                             : Complete Main / Supplementary
Default                                  : Нет
Alternate group                          : 1
Дата кодирования                         : 2020-01-21 21:02:32 UTC
Дата пометки                             : 2020-01-21 21:11:49 UTC
Fallback To                              : 5
Аудио #11
Идентификатор                            : 12
Формат                                   : AC-3
Формат/Информация                        : Audio Coding 3
Коммерческое название                    : Dolby Digital
Идентификатор кодека                     : ac-3
Продолжительность                        : 1 ч. 39 м.
Продолжительность оригинала              : 1 ч. 39 м.
Вид битрейта                             : Постоянный
Битрейт                                  : 640 Кбит/сек
Каналы                                   : 6 каналов
Channel layout                           : L R C LFE Ls Rs
Частота                                  : 48,0 КГц
Частота кадров                           : 31,250 кадров/сек (1536 SPF)
Метод сжатия                             : С потерями
Размер потока                            : 454 Мбайт (7%)
Размер потока оригинала                  : 454 Мбайт (7%)
Заголовок                                : AVO [Юрий Живов]
Язык                                     : Russian
Service kind                             : Complete Main / Supplementary
Default                                  : Нет
Alternate group                          : 1
Дата кодирования                         : 2020-01-21 21:02:32 UTC
Дата пометки                             : 2020-01-21 21:11:49 UTC
Fallback To                              : 6
Аудио #12
Идентификатор                            : 13
Формат                                   : AC-3
Формат/Информация                        : Audio Coding 3
Коммерческое название                    : Dolby Digital
Идентификатор кодека                     : ac-3
Продолжительность                        : 1 ч. 39 м.
Продолжительность оригинала              : 1 ч. 39 м.
Вид битрейта                             : Постоянный
Битрейт                                  : 640 Кбит/сек
Каналы                                   : 6 каналов
Channel layout                           : L R C LFE Ls Rs
Частота                                  : 48,0 КГц
Частота кадров                           : 31,250 кадров/сек (1536 SPF)
Метод сжатия                             : С потерями
Размер потока                            : 454 Мбайт (7%)
Размер потока оригинала                  : 454 Мбайт (7%)
Заголовок                                : Original
Язык                                     : English
Service kind                             : Complete Main / Complete Main
Default                                  : Нет
Alternate group                          : 1
Дата кодирования                         : 2020-01-21 21:02:32 UTC
Дата пометки                             : 2020-01-21 21:11:49 UTC
Fallback To                              : 7
Текст #1
Идентификатор                            : 14
Формат                                   : Timed Text
Режим смешивания                         : sbtl
Идентификатор кодека                     : tx3g
Продолжительность                        : 1 ч. 35 м.
Вид битрейта                             : Переменный
Битрейт                                  : 176 бит/сек
Частота кадров                           : 0,403 кадр/сек
Размер потока                            : 123 Кбайт (0%)
Язык                                     : Russian
Service kind                             : Complete Main
Default                                  : Да
Forced                                   : Нет
Alternate group                          : 2
Дата кодирования                         : 2020-01-21 21:02:32 UTC
Дата пометки                             : 2020-01-21 21:11:49 UTC
Count of events                          : 1150
Текст #2
Идентификатор                            : 15
Формат                                   : Timed Text
Режим смешивания                         : sbtl
Идентификатор кодека                     : tx3g
Продолжительность                        : 1 ч. 35 м.
Вид битрейта                             : Переменный
Битрейт                                  : 183 бит/сек
Частота кадров                           : 0,403 кадр/сек
Размер потока                            : 127 Кбайт (0%)
Заголовок                                : «Гоблин»
Язык                                     : Russian
Service kind                             : Supplementary
Default                                  : Нет
Forced                                   : Нет
Alternate group                          : 2
Дата кодирования                         : 2020-01-21 21:02:32 UTC
Дата пометки                             : 2020-01-21 21:11:49 UTC
Count of events                          : 1150
Текст #3
Идентификатор                            : 16
Формат                                   : Timed Text
Режим смешивания                         : sbtl
Идентификатор кодека                     : tx3g
Продолжительность                        : 1 ч. 35 м.
Вид битрейта                             : Переменный
Битрейт                                  : 164 бит/сек
Частота кадров                           : 0,495 кадр/сек
Размер потока                            : 114 Кбайт (0%)
Язык                                     : English
Service kind                             : Complete Main
Default                                  : Нет
Forced                                   : Нет
Alternate group                          : 2
Дата кодирования                         : 2020-01-21 21:02:32 UTC
Дата пометки                             : 2020-01-21 21:11:49 UTC
Count of events                          : 1420

Tunes Meta Tags:

Код:
Name: Бешеные псы Reservoir Dogs
Artist: Quentin Tarantino
Media Kind: Movie
HD Video: 720p
Genre: Драма
Release Date: 1992-10-23T07:00:00Z
Long Description: Четверо идеальных убийц. Одно идеальное преступление. Критики превозносили этот блестящий, классический американский гангстерский фильм сценариста и режиссера Квентина Тарантино за грубую силу и неукротимую жестокость. Это были совершенно незнакомые друг с другом люди, собравшиеся, чтобы осуществить одно совершенное ограбление. Когда простой грабеж оборачивается кровавой засадой, безжалостные убийцы понимают, что один из них - стукач. Но кто?
Rating: ru-movie|16+|375|
Studio: Lionsgate
Cast: Harvey Keitel, Tim Roth, Michael Madsen, Chris Penn, Steve Buscemi
Director: Quentin Tarantino
Producers: Lawrence Bender, Richard N. Gladstein, Monte Hellman, Ronna B. Wallace
Screenwriters: Quentin Tarantino
Copyright: © 1991 Dog Eat Dog Productions, Inc.
content ID: 950560363
iTunes Country: 143469

Знаете ли вы, что…

• Режиссер и сценарист фильма Квентин Тарантино хотел, чтобы в картине снимался Джеймс Вудс , и даже пять раз повышал сумму гонорара, предназначенного для этого актера. Однако агент Вудса отклонил все эти предложения, даже не упомянув о них ему, поскольку суммы были смехотворно малы по сравнению с его обычными заработками. Когда же долгое время спустя Тарантино наконец-то познакомился с Вудсом и тот узнал о его предложении, актер настолько расстроился, что тут же уволил своего агента. Тарантино не стал говорить Вудсу, на какую именно роль он намеревался его пригласить, так как не хотел принижать талант актера, в итоге исполнившего ее. Однако все сходятся в едином мнении: Тарантино мог видеть Вудса только в образе мистера Оранджа.
Продолжение...

Скриншоты:

-
Релиз подготовлен для просмотра на Apple TV, iPad, iPhone, iPod Touch.
Для просмотра данного релиза на компьютере с ОС Windows рекомендуется использовать VLC media player
Download

Скачать .torrent файл

Сайт не распространяет и не хранит электронные версии произведений, а лишь предоставляет доступ к создаваемому пользователями каталогу ссылок на торрент-файлы, которые содержат только списки хеш-сумм

 
logo
Error