Стой! Или моя мама будет стрелять / Stop! Or My Mom Will Shoot (Роджер Споттисвуд) [1992 г., комедия, боевик, криминал, BDRip 1080p][MVO, DVO, AVO]

Страницы:  1

Ответить
Автор
Сообщение

SkyMac


Стой! Или моя мама будет стрелять / Stop! Or My Mom Will Shoot«Detective Joe Bomowski's mom is in town for a visit. She did the laundry, washed the windows and scrubbed the floors. Now, she's gonna clean up the streets»- Год выпуска: 1992
Производство: США / Universal Pictures
Жанр: комедия, боевик, криминал
Продолжительность: 01:27:05
Перевод: профессиональный (многоголосый, двухголосый), авторский одноголосый
Субтитры: русские (full), английские (full)
Режиссёр: Роджер Споттисвуд
Продюсер: Майкл С. Гросс, Джо Медьяк, Айвен Райтман,
Сценарий: Блейк Снайдер, Уильям Осборн, Уильям Дэвис
Премьера в мире: 21 февраля 1992
Рейтинг MPAA: PG-13 (детям до 13 лет просмотр нежелателен)
Возраст: 18+ (зрителям, достигшим 18 лет. запрещено для детей)
IMDB: 4.4
Kinopoisk: 6.6
В ролях: Сильвестр Сталлоне, Эстель Гетти, ДжоБет Уильямс, Роджер Рис, Мартин Ферреро, Гейлард Сартейн, Джон Уэсли, Эл Фэнн, Элла Джойс, Дж. Кеннет Кэмпбелл
Описание:
У сержанта полиции Лос-Анджелеса Джо Бомовски жизнь перевернулась вверх дном после того, как его милая мамаша Тутти решила навестить любимого сыночка. К огромной радости подружки и непосредственного начальника Джо, лейтенанта Гвен Харпер, Тутти сразу приводит в порядок его холостяцкую берлогу и начинает налаживать «хозяйство».
Как вы прекрасно понимаете, бравый сержант не в восторге от всех этих нововведений. А тут еще, в дополнение ко всем проблемам, неугомонная Тутти оказывается свидетельницей убийства и требует... чтобы сын позволил ей участвовать в расследовании!
В итоге Джо получает нового напарника - собственную мамулю, которая решает задать преступникам солидную трепку!
Качество: BDRip 1080p
Формат: M4V
Видео кодек: H.264
Аудио кодек: AAC
Видео: AVC/H.264, 1920x1040, ~ 16,1 Mkbps
Аудио 1: AAC, 2 ch, 48 kHz, 230 Kbps | Русский (MVO, DDV)
Аудио 2: AAC, 2 ch, 48 kHz, 230 Kbps | Русский (DVO, Позитив-Мультимедиа)
Аудио 3: AAC, 2 ch, 48 kHz, 230 Kbps | Русский (AVO, А. Михалев)
Аудио 4: AAC, 2 ch, 48 kHz, 230 Kbps | Русский (AVO, А. Дольский)
Аудио 5: AAC, 2 ch, 48 kHz, 227 Kbps | Украинский (MVO, ICTV)
Аудио 6: AAC, 2 ch, 48 kHz, 230 Kbps | Английский

MediaInfo:

Код:
Общее
Полное имя                               : /Volumes/HDD/Movies HDD/Stop! Or My Mom Will Shoot (1992) BDRip [1080p].m4v
Формат                                   : MPEG-4
Идентификатор кодека                     : M4V  (M4V /M4A /mp42/isom)
Размер файла                             : 10,6 Гбайт
Продолжительность                        : 1 ч. 27 м.
Режим общего битрейта                    : Переменный
Общий поток                              : 17,4 Мбит/сек
Частота кадров                           : 23,880 кадра/сек
Название фильма                          : Стой! Или моя мама будет стрелять
Исполнитель                              : Roger Spottiswoode
Режиссёр                                 : Roger Spottiswoode
Исполнитель                              : Sylvester Stallone / Estelle Getty / JoBeth Williams / Roger Rees / Martin Ferrero / Gailard Sartain / John Wesley / Al Fann / Ella Joyce / J. Kenneth Campbell / Nicholas Sadler / Dennis Burkley / Ving Rhames / Jana Arnold / Christopher Collins / Mark Mikesell / Matthew Powers / Richard Schiff / Brigitta Stenberg / Vanessa Angel / Marjean Holden / Joey DePinto / Larry Campbell / Shari Shaw / Kimberley LaMarque / Amy Kirkpatrick / J. David Krassner / Patti Yasutake / Norm Compton / A. Michael Lerner / Jophery C. Brown / J.W. 'Corkey' Fornof / Charles Renneisen / John D. Sarviss / Roydon Clark / Manny Perry / Justin De Rosa / Ernie Lively / Richard Suggett / Art T. Yago / Julia Montgomery / Shelley A. Hill / Pixie / Matt Johnston
Сценарист                                : William Davies / William Osborne / Blake Snyder
Продюсер                                 : Ivan Reitman / Michael C. Gross / Joe Medjuck
Исполнительный продюсер                  : Joe Wizan, Todd Black
Студия-производитель                     : Universal Pictures, Northern Lights Entertainment
Жанр                                     : боевик, комедия
Тип содержимого                          : Short Film
Дата записи                              : 1992-02-21 12:00:00 UTC
Дата кодирования                         : 2024-03-05 04:53:20 UTC
Дата пометки                             : 2024-03-05 05:04:28 UTC
Обложка                                  : Yes
LongDescription                          : У сержанта полиции Лос-Анджелеса Джо Борновски жизнь перевернулась вверх дном после того, как его милая мамаша Тутти решила навестить любимого сыночка. К огромной радости подружки и непосредственного начальника Джо, лейтенанта Гвен Харпер, Тутти сразу приводит в порядок его холостяцкую берлогу и начинает налаживать «хозяйство».  Как вы прекрасно понимаете, бравый сержант не в восторге от всех этих нововведений. А тут еще, в дополнение ко всем проблемам, неугомонная Тутти оказывается свидетельницей убийства и требует… чтобы сын позволил ей участвовать в расследовании!  В итоге Джо получает нового напарника — собственную мамулю, которая решает задать преступникам солидную трепку!
ContentRating                            : mpaa|PG-13|300|
Видео #1
Идентификатор                            : 1
Формат                                   : AVC
Формат/Информация                        : Advanced Video Codec
Профиль формата                          : High@L4.1
Настройки формата                        : CABAC / 4 Ref Frames
Параметр CABAC формата                   : Да
Параметр RefFrames формата               : 4 кадра
Идентификатор кодека                     : avc1
Идентификатор кодека/Информация          : Advanced Video Coding
Продолжительность                        : 1 ч. 27 м.
Битрейт                                  : 16,1 Мбит/сек
Ширина                                   : 1 920 пикселей
Высота                                   : 1 040 пикселей
Соотношение сторон                       : 1,85:1
Режим частоты кадров                     : Переменный
Частота кадров                           : 23,880 кадра/сек
Минимальная частота кадров               : 0,406 кадр/сек
Максимальная частота кадров              : 24,390 кадра/сек
Частота кадров в оригинале               : 23,976 (24000/1001) кадра/сек
Цветовое пространство                    : YUV
Субдискретизация насыщенности            : 4:2:0
Битовая глубина                          : 8 бит
Тип развёртки                            : Прогрессивная
Бит/(Пиксели*Кадры)                      : 0.337
Размер потока                            : 9,78 Гбайт (92%)
Библиотека кодирования                   : x264 core 164 r3144+47 7d6367c tMod@devel [(8 & 10)-bit@all X86_64]
Настройки программы                      : cabac=1 / ref=4 / deblock=1:-3:-3 / analyse=0x3:0x133 / me=umh / subme=11 / psy=1 / fade_compensate=0.00 / psy_rd=0.90:0.00 / mixed_ref=1 / me_range=32 / chroma_me=1 / trellis=2 / 8x8dct=1 / cqm=0 / deadzone=21,11 / fast_pskip=0 / chroma_qp_offset=-2 / threads=32 / lookahead_threads=8 / sliced_threads=0 / nr=0 / decimate=0 / interlaced=0 / bluray_compat=0 / constrained_intra=0 / fgo=0 / bframes=10 / b_pyramid=2 / b_adapt=2 / b_bias=0 / direct=3 / weightb=1 / open_gop=0 / weightp=2 / keyint=250 / keyint_min=23 / scenecut=40 / intra_refresh=0 / rc=crf / mbtree=0 / crf=17.4000 / qcomp=0.60 / qpmin=0:0:0 / qpmax=69:69:69 / qpstep=4 / ip_ratio=1.30 / pb_ratio=1.20 / aq=3:0.80 / aq-sensitivity=10.00 / aq-factor=1.00:1.00:1.00:1.00 / aq2=0 / aq3=0 / zones=120157,125293,crf=22
Язык                                     : English
Дата кодирования                         : 2024-03-05 04:53:20 UTC
Дата пометки                             : 2024-03-05 05:04:16 UTC
Цветовой диапазон                        : Limited
Основные цвета                           : BT.709
Характеристики трансфера                 : BT.709
Коэффициенты матрицы                     : BT.709
Menus                                    : 10,11
Codec configuration box                  : avcC
Видео #2
Идентификатор                            : 11
Формат                                   : JPEG
Идентификатор кодека                     : jpeg
Продолжительность                        : 1 ч. 27 м.
Вид битрейта                             : Переменный
Битрейт                                  : 800 бит/сек
Ширина                                   : 640 пикселей
Высота                                   : 346 пикселей
Соотношение сторон                       : 1,85:1
Режим частоты кадров                     : Переменный
Частота кадров                           : 0,002 кадр/сек
Минимальная частота кадров               : 0,002 кадр/сек
Максимальная частота кадров              : 0,005 кадр/сек
Цветовое пространство                    : YUV
Субдискретизация насыщенности            : 4:2:0
Битовая глубина                          : 8 бит
Метод сжатия                             : С потерями
Бит/(Пиксели*Кадры)                      : 1.806
Размер потока                            : 586 Кбайт (0%)
Язык                                     : English
Default                                  : Нет
Дата кодирования                         : 2024-03-05 05:04:27 UTC
Дата пометки                             : 2024-03-05 05:04:27 UTC
Menu For                                 : 1
ColorSpace_ICC                           : RGB
Аудио #1
Идентификатор                            : 2
Формат                                   : AAC LC
Формат/Информация                        : Advanced Audio Codec Low Complexity
Идентификатор кодека                     : mp4a-40-2
Продолжительность                        : 1 ч. 26 м.
Вид битрейта                             : Переменный
Битрейт                                  : 231 Кбит/сек
Максимальный битрейт                     : 374 Кбит/сек
Каналы                                   : 2 канала
Channel layout                           : L R
Частота                                  : 48,0 КГц
Частота кадров                           : 46,875 кадров/сек (1024 SPF)
Метод сжатия                             : С потерями
Размер потока                            : 143 Мбайт (1%)
Язык                                     : Russian
Default                                  : Да
Alternate group                          : 1
Дата кодирования                         : 2024-03-05 04:53:20 UTC
Дата пометки                             : 2024-03-05 05:04:16 UTC
tagc                                     : public.main-program-content
Аудио #2
Идентификатор                            : 3
Формат                                   : AAC LC
Формат/Информация                        : Advanced Audio Codec Low Complexity
Идентификатор кодека                     : mp4a-40-2
Продолжительность                        : 1 ч. 26 м.
Вид битрейта                             : Переменный
Битрейт                                  : 238 Кбит/сек
Максимальный битрейт                     : 348 Кбит/сек
Каналы                                   : 2 канала
Channel layout                           : L R
Частота                                  : 48,0 КГц
Частота кадров                           : 46,875 кадров/сек (1024 SPF)
Метод сжатия                             : С потерями
Размер потока                            : 147 Мбайт (1%)
Язык                                     : Russian
Default                                  : Нет
Alternate group                          : 1
Дата кодирования                         : 2024-03-05 04:53:20 UTC
Дата пометки                             : 2024-03-05 05:04:16 UTC
tagc                                     : public.auxiliary-content
Аудио #3
Идентификатор                            : 4
Формат                                   : AAC LC
Формат/Информация                        : Advanced Audio Codec Low Complexity
Идентификатор кодека                     : mp4a-40-2
Продолжительность                        : 1 ч. 26 м.
Вид битрейта                             : Переменный
Битрейт                                  : 230 Кбит/сек
Максимальный битрейт                     : 418 Кбит/сек
Каналы                                   : 2 канала
Channel layout                           : L R
Частота                                  : 48,0 КГц
Частота кадров                           : 46,875 кадров/сек (1024 SPF)
Метод сжатия                             : С потерями
Размер потока                            : 143 Мбайт (1%)
Язык                                     : Russian
Default                                  : Нет
Alternate group                          : 1
Дата кодирования                         : 2024-03-05 04:53:20 UTC
Дата пометки                             : 2024-03-05 05:04:16 UTC
tagc                                     : public.auxiliary-content
Аудио #4
Идентификатор                            : 5
Формат                                   : AAC LC
Формат/Информация                        : Advanced Audio Codec Low Complexity
Идентификатор кодека                     : mp4a-40-2
Продолжительность                        : 1 ч. 26 м.
Вид битрейта                             : Переменный
Битрейт                                  : 231 Кбит/сек
Максимальный битрейт                     : 410 Кбит/сек
Каналы                                   : 2 канала
Channel layout                           : L R
Частота                                  : 48,0 КГц
Частота кадров                           : 46,875 кадров/сек (1024 SPF)
Метод сжатия                             : С потерями
Размер потока                            : 143 Мбайт (1%)
Язык                                     : Russian
Default                                  : Нет
Alternate group                          : 1
Дата кодирования                         : 2024-03-05 04:53:20 UTC
Дата пометки                             : 2024-03-05 05:04:16 UTC
tagc                                     : public.auxiliary-content
Аудио #5
Идентификатор                            : 6
Формат                                   : AAC LC
Формат/Информация                        : Advanced Audio Codec Low Complexity
Идентификатор кодека                     : mp4a-40-2
Продолжительность                        : 1 ч. 26 м.
Вид битрейта                             : Переменный
Битрейт                                  : 178 Кбит/сек
Максимальный битрейт                     : 205 Кбит/сек
Каналы                                   : 2 канала
Channel layout                           : L R
Частота                                  : 48,0 КГц
Частота кадров                           : 46,875 кадров/сек (1024 SPF)
Метод сжатия                             : С потерями
Размер потока                            : 110 Мбайт (1%)
Язык                                     : Ukrainian
Default                                  : Нет
Alternate group                          : 1
Дата кодирования                         : 2024-03-05 04:53:20 UTC
Дата пометки                             : 2024-03-05 05:04:16 UTC
tagc                                     : public.main-program-content
Аудио #6
Идентификатор                            : 7
Формат                                   : AAC LC
Формат/Информация                        : Advanced Audio Codec Low Complexity
Идентификатор кодека                     : mp4a-40-2
Продолжительность                        : 1 ч. 26 м.
Продолжительность оригинала              : 1 ч. 26 м.
Вид битрейта                             : Переменный
Номинальный битрейт                      : 230 Кбит/сек
Максимальный битрейт                     : 395 Кбит/сек
Каналы                                   : 2 канала
Channel layout                           : L R
Частота                                  : 44,1 КГц
Частота кадров                           : 43,066 кадра/сек (1024 SPF)
Метод сжатия                             : С потерями
Размер потока оригинала                  : 143 Мбайт (1%)
Язык                                     : English
Default                                  : Нет
Alternate group                          : 1
Дата кодирования                         : 2024-03-05 04:53:20 UTC
Дата пометки                             : 2024-03-05 04:54:48 UTC
tagc                                     : public.main-program-content
Текст #1
Идентификатор                            : 8
Формат                                   : Timed Text
Режим смешивания                         : sbtl
Идентификатор кодека                     : tx3g
Продолжительность                        : 1 ч. 23 м.
Вид битрейта                             : Переменный
Битрейт                                  : 91 бит/сек
Частота кадров                           : 0,361 кадр/сек
Размер потока                            : 55,7 Кбайт (0%)
Язык                                     : Russian
Default                                  : Да
Forced                                   : Нет
Alternate group                          : 2
Дата кодирования                         : 2024-03-05 04:53:20 UTC
Дата пометки                             : 2024-03-05 05:04:16 UTC
Count of events                          : 903
tagc                                     : public.main-program-content
Текст #2
Идентификатор                            : 9
Формат                                   : Timed Text
Режим смешивания                         : sbtl
Идентификатор кодека                     : tx3g
Продолжительность                        : 1 ч. 23 м.
Вид битрейта                             : Переменный
Битрейт                                  : 57 бит/сек
Частота кадров                           : 0,360 кадр/сек
Размер потока                            : 34,6 Кбайт (0%)
Язык                                     : English
Default                                  : Нет
Forced                                   : Нет
Alternate group                          : 2
Дата кодирования                         : 2024-03-05 04:53:20 UTC
Дата пометки                             : 2024-03-05 05:04:16 UTC
Count of events                          : 901
tagc                                     : public.main-program-content
Меню
Идентификатор                            : 10
Формат                                   : Timed Text
Идентификатор кодека                     : text
Продолжительность                        : 1 ч. 27 м.
Язык                                     : English
Дата кодирования                         : 2024-03-05 05:04:16 UTC
Дата пометки                             : 2024-03-05 05:04:16 UTC
Вид битрейта                             : CBR
Menu For                                 : 1
00:00:00.000                             : Chapter 01
00:05:49.682                             : Chapter 02
00:16:05.547                             : Chapter 03
00:22:05.198                             : Chapter 04
00:28:22.324                             : Chapter 05
00:36:53.127                             : Chapter 06
00:44:45.933                             : Chapter 07
00:52:33.984                             : Chapter 08
00:57:48.131                             : Chapter 09
01:05:22.084                             : Chapter 10
01:15:03.916                             : Chapter 11
01:23:32.090                             : Chapter 12
Вид битрейта                             : Постоянный

Tunes Meta Tags:

Код:
Name: Стой! Или моя мама будет стрелять
Artist: Roger Spottiswoode
Media Kind: Movies
HD Video: 1080p
Genre: боевик, комедия
Release Date: 1992-02-21T12:00:00Z
Long Description: У сержанта полиции Лос-Анджелеса Джо Борновски жизнь перевернулась вверх дном после того, как его милая мамаша Тутти решила навестить любимого сыночка. К огромной радости подружки и непосредственного начальника Джо, лейтенанта Гвен Харпер, Тутти сразу приводит в порядок его холостяцкую берлогу и начинает налаживать «хозяйство».  Как вы прекрасно понимаете, бравый сержант не в восторге от всех этих нововведений. А тут еще, в дополнение ко всем проблемам, неугомонная Тутти оказывается свидетельницей убийства и требует… чтобы сын позволил ей участвовать в расследовании!  В итоге Джо получает нового напарника — собственную мамулю, которая решает задать преступникам солидную трепку!
Rating: mpaa|PG-13|300|
Studio: Universal Pictures, Northern Lights Entertainment
Cast: Sylvester Stallone, Estelle Getty, JoBeth Williams, Roger Rees, Martin Ferrero, Gailard Sartain, John Wesley, Al Fann, Ella Joyce, J. Kenneth Campbell, Nicholas Sadler, Dennis Burkley, Ving Rhames, Jana Arnold, Christopher Collins, Mark Mikesell, Matthew Powers, Richard Schiff, Brigitta Stenberg, Vanessa Angel, Marjean Holden, Joey DePinto, Larry Campbell, Shari Shaw, Kimberley LaMarque, Amy Kirkpatrick, J. David Krassner, Patti Yasutake, Norm Compton, A. Michael Lerner, Jophery C. Brown, J.W. 'Corkey' Fornof, Charles Renneisen, John D. Sarviss, Roydon Clark, Manny Perry, Justin De Rosa, Ernie Lively, Richard Suggett, Art T. Yago, Julia Montgomery, Shelley A. Hill, Pixie, Matt Johnston
Director: Roger Spottiswoode
Producers: Ivan Reitman, Michael C. Gross, Joe Medjuck
Executive Producer: Joe Wizan, Todd Black
Screenwriters: William Davies, William Osborne, Blake Snyder

Знаете ли вы, что…

• Сталлоне считает данный фильм худшим в карьере.
Эстель Гетти (1923-2008) категорически отказалась сниматься в фильме, потому что в нём будет фигурировать оружие. Авторам фильма пришлось солгать, сказав, что в фильме не будет никакого оружия, чтобы актриса наконец подписала контракт.
• В одном из интервью Сильвестр Сталлоне признался, что, как только он услышал о том, что Арнольд Шварценеггер проявил интерес к этой роли, он тут же позвонил своему агенту и велел ему заполучить эту роль во что бы то ни стало. Лишь много лет спустя он выяснил, что Шварценеггер только притворялся, что хочет сыграть в этом фильме, в расчёте как раз на такую реакцию Сталлоне.
• Когда героиня Эстель Гетти показывает окружающим фотографии своего сына, на чёрно-белом снимке мальчика в клетчатой рубашке действительно изображён Сильвестр Сталлоне. Этот же снимок показан и в фильме Джона Г. Эвилдсена (1935-2017) «Рокки» (1976).

Скриншоты:

-
Релиз подготовлен для просмотра на Apple TV, iPad, iPhone, iPod Touch.
Для просмотра данного релиза на компьютере с ОС Windows рекомендуется использовать VLC media player
Download

Скачать .torrent файл

Сайт не распространяет и не хранит электронные версии произведений, а лишь предоставляет доступ к создаваемому пользователями каталогу ссылок на торрент-файлы, которые содержат только списки хеш-сумм

 
logo
Error