Мафия! / Jane Austen's Mafia! (Джим Абрахамс) [1998 г., комедия, криминал, BDRip 1080p][MVO, DVO, AVO]

Страницы:  1

Ответить
Автор
Сообщение

SkyMac


Мафия! / Jane Austen's Mafia!«Удивительно не организованная преступность» - Год выпуска: 1998
Производство: США / Touchstone Pictures
Жанр: комедия, криминал
Продолжительность: 01:26:49
Перевод: многоголосый профессиональный, двухголосый профессиональный, авторский одноголосый
Субтитры: английские
Режиссёр: Джим Абрахамс
Продюсер: Билл Бадалато, Питер Абрамс, Джек А. Бернштейн
Сценарий: Джим Абрахамс, Грег Норберг, Майкл МакМэнус
Премьера в мире: 24 июля 1998
Рейтинг MPAA: PG-13 (детям до 13 лет просмотр нежелателен)
Возраст: 12+ (зрителям, достигшим 12 лет)
IMDB: 5.5
Kinopoisk: 6.8
В ролях: Джей Мор, Билли Бёрк, Кристина Эпплгейт, Памела Гидли, Олимпия Дукакис, Ллойд Бриджес, Джейсон Фучс, Джо Витерелли, Тони Ло Бьянко, Блейк Хэммонд
Описание:
Главный герой Дон Винченцо Кортино — глава удивительно неорганизованной преступной группировки. В результате мафиозных разборок на крестного отца совершается коварное покушение — в него стреляют 47 раз, и это заставляет Дона Кортино задуматься о смысле жизни.
Патриарху криминального мира нужен достойный преемник, который сможет окончательно дезорганизовать преступность в стране. У синьора Винченцо два сына: один — отважный герой войны, другой — законченный психопат и наркоман. Кого же выберет мудрый Дон?
Качество: BDRip 1080p
Формат: M4V
Видео кодек: H.264
Аудио кодек: AAC/AC3
Видео: AVC/H.264, 1920x1038, ~ 16,4 Mbps
Аудио 01: AAC, 2 ch, 48 kHz, 230 Kbps | Русский (MVO, Видеосервис)
Аудио 02: AAC, 2 ch, 48 kHz, 177 Kbps | Русский (DVO, TV1000)
Аудио 03: AAC, 2 ch, 48 kHz, 230 Kbps | Русский (AVO, П. Санаев)
Аудио 04: AAC, 2 ch, 48 kHz, 179 Kbps | Русский (AVO, С. Визгунов)
Аудио 06: AAC, 2 ch, 48 kHz, 226 Kbps | Украинский (DVO, ICTV)
Аудио 07: AAC, 2 ch, 48 kHz, 230 Kbps | Английский
Аудио 08: AC3, 6 ch, 48 kHz, 640 Kbps | Русский (MVO, Видеосервис)
Аудио 09: AC3, 6 ch, 48 kHz, 640 Kbps | Русский (AVO, П. Санаев)
Аудио 10: AC3, 6 ch, 48 kHz, 640 Kbps | Английский

MediaInfo:

Код:
Общее
Полное имя                               : /Volumes/HDD/Movies HDD/Jane Austen's Mafia! (1998) BDRip [1080p].m4v
Формат                                   : MPEG-4
Идентификатор кодека                     : M4V  (M4V /M4A /mp42/isom)
Размер файла                             : 11,9 Гбайт
Продолжительность                        : 1 ч. 26 м.
Режим общего битрейта                    : Переменный
Общий поток                              : 19,6 Мбит/сек
Частота кадров                           : 23,976 кадра/сек
Название фильма                          : Мафия!
Исполнитель                              : Jim Abrahams
Композитор                               : John Frizzell
Режиссёр                                 : Jim Abrahams
Исполнитель                              : Jay Mohr / Billy Burke / Christina Applegate / Pamela Gidley / Olympia Dukakis / Lloyd Bridges / Jason Fuchs / Joe Viterelli / Tony Lo Bianco / Blake Hammond / Philip Suriano / Vincent Pastore / Marisol Nichols / Carol Ann Susi / Gregory Sierra / Sofia Milos / Anthony Crivello / Andreas Katsulas / Joseph R. Sicari / Martin Charles Warner / Deep Roy / Alex Trebek / Isabel Sanford / Sherman Hemsley / Florence Griffith Joyner / Karen Leigh Hopkins / Don Cornelius / Richard Abraham / Jack I. Bernstein / Don Bovingloh / Louis Mandylor / Seth Adkins / Sebastian Aza / Frank Birney / T.J. Cannata / Allyson Call / James Costa / Jason Davis / Jerry Haleva
Сценарист                                : Michael McManus / Jim Abrahams / Greg Norberg
Продюсер                                 : Bill Badalato
Исполнительный продюсер                  : Peter Abrams, Robert L. Levy
Студия-производитель                     : Tapestry Films, Touchstone Pictures
Жанр                                     : комедия, криминал
Тип содержимого                          : Short Film
Дата записи                              : 1998-07-24 12:00:00 UTC
Дата кодирования                         : 2024-03-07 14:46:43 UTC
Дата пометки                             : 2024-03-07 14:55:15 UTC
Обложка                                  : Yes
LongDescription                          : Главный герой Дон Винченцо Кортино — глава удивительно неорганизованной преступной группировки. В результате мафиозных разборок на крестного отца совершается коварное покушение — в него стреляют 47 раз, и это заставляет Дона Кортино задуматься о смысле жизни.  Патриарху криминального мира нужен достойный преемник, который сможет окончательно дезорганизовать преступность в стране. У синьора Винченцо два сына: один — отважный герой войны, другой — законченный психопат и наркоман. Кого же выберет мудрый Дон?…
ContentRating                            : mpaa|PG-13|300|
Видео #1
Идентификатор                            : 1
Формат                                   : AVC
Формат/Информация                        : Advanced Video Codec
Профиль формата                          : High@L4.1
Настройки формата                        : CABAC / 4 Ref Frames
Параметр CABAC формата                   : Да
Параметр RefFrames формата               : 4 кадра
Идентификатор кодека                     : avc1
Идентификатор кодека/Информация          : Advanced Video Coding
Продолжительность                        : 1 ч. 26 м.
Битрейт                                  : 16,4 Мбит/сек
Ширина                                   : 1 920 пикселей
Высота                                   : 1 038 пикселей
Соотношение сторон                       : 1,85:1
Режим частоты кадров                     : Переменный
Частота кадров                           : 23,976 (24000/1001) кадра/сек
Минимальная частота кадров               : 23,810 кадра/сек
Максимальная частота кадров              : 24,390 кадра/сек
Цветовое пространство                    : YUV
Субдискретизация насыщенности            : 4:2:0
Битовая глубина                          : 8 бит
Тип развёртки                            : Прогрессивная
Бит/(Пиксели*Кадры)                      : 0.342
Размер потока                            : 9,92 Гбайт (84%)
Библиотека кодирования                   : x264 core 164 r3144+47 7d6367c tMod@devel [(8 & 10)-bit@all X86_64]
Настройки программы                      : cabac=1 / ref=4 / deblock=1:-3:-3 / analyse=0x3:0x133 / me=umh / subme=11 / psy=1 / fade_compensate=0.00 / psy_rd=1.00:0.00 / mixed_ref=1 / me_range=32 / chroma_me=1 / trellis=2 / 8x8dct=1 / cqm=0 / deadzone=21,11 / fast_pskip=0 / chroma_qp_offset=-2 / threads=32 / lookahead_threads=8 / sliced_threads=0 / nr=0 / decimate=0 / interlaced=0 / bluray_compat=0 / constrained_intra=0 / fgo=0 / bframes=10 / b_pyramid=2 / b_adapt=2 / b_bias=0 / direct=3 / weightb=1 / open_gop=0 / weightp=2 / keyint=250 / keyint_min=23 / scenecut=40 / intra_refresh=0 / rc=crf / mbtree=0 / crf=17.9000 / qcomp=0.60 / qpmin=0:0:0 / qpmax=69:69:69 / qpstep=4 / ip_ratio=1.30 / pb_ratio=1.20 / aq=3:0.70 / aq-sensitivity=10.00 / aq-factor=1.00:1.00:1.00:1.00 / aq2=0 / aq3=0 / zones=120363,124896,crf=22
Язык                                     : English
Дата кодирования                         : 2024-03-07 14:46:43 UTC
Дата пометки                             : 2024-03-07 14:55:03 UTC
Цветовой диапазон                        : Limited
Основные цвета                           : BT.709
Характеристики трансфера                 : BT.709
Коэффициенты матрицы                     : BT.709
Menus                                    : 12,13
Codec configuration box                  : avcC
Видео #2
Идентификатор                            : 13
Формат                                   : JPEG
Идентификатор кодека                     : jpeg
Продолжительность                        : 1 ч. 26 м.
Вид битрейта                             : Переменный
Битрейт                                  : 833 бит/сек
Ширина                                   : 640 пикселей
Высота                                   : 346 пикселей
Соотношение сторон                       : 1,85:1
Режим частоты кадров                     : Переменный
Частота кадров                           : 0,002 кадр/сек
Минимальная частота кадров               : 0,001 кадр/сек
Максимальная частота кадров              : 0,006 кадр/сек
Цветовое пространство                    : YUV
Субдискретизация насыщенности            : 4:2:0
Битовая глубина                          : 8 бит
Метод сжатия                             : С потерями
Бит/(Пиксели*Кадры)                      : 1.881
Размер потока                            : 457 Кбайт (0%)
Язык                                     : English
Default                                  : Нет
Дата кодирования                         : 2024-03-07 14:55:14 UTC
Дата пометки                             : 2024-03-07 14:55:14 UTC
Menu For                                 : 1
ColorSpace_ICC                           : RGB
Аудио #1
Идентификатор                            : 2
Формат                                   : AAC LC
Формат/Информация                        : Advanced Audio Codec Low Complexity
Идентификатор кодека                     : mp4a-40-2
Продолжительность                        : 1 ч. 26 м.
Продолжительность оригинала              : 1 ч. 26 м.
Вид битрейта                             : Переменный
Битрейт                                  : 230 Кбит/сек
Максимальный битрейт                     : 425 Кбит/сек
Каналы                                   : 2 канала
Channel layout                           : L R
Частота                                  : 48,0 КГц
Частота кадров                           : 46,875 кадров/сек (1024 SPF)
Метод сжатия                             : С потерями
Размер потока                            : 143 Мбайт (1%)
Размер потока оригинала                  : 143 Мбайт (1%)
Язык                                     : Russian
Default                                  : Да
Alternate group                          : 1
Дата кодирования                         : 2024-03-07 14:46:43 UTC
Дата пометки                             : 2024-03-07 14:49:06 UTC
Fallback From                            : 8
tagc                                     : public.main-program-content
Аудио #2
Идентификатор                            : 3
Формат                                   : AAC LC
Формат/Информация                        : Advanced Audio Codec Low Complexity
Идентификатор кодека                     : mp4a-40-2
Продолжительность                        : 1 ч. 26 м.
Вид битрейта                             : Переменный
Битрейт                                  : 177 Кбит/сек
Максимальный битрейт                     : 195 Кбит/сек
Каналы                                   : 2 канала
Channel layout                           : L R
Частота                                  : 48,0 КГц
Частота кадров                           : 46,875 кадров/сек (1024 SPF)
Метод сжатия                             : С потерями
Размер потока                            : 110 Мбайт (1%)
Язык                                     : Russian
Default                                  : Нет
Alternate group                          : 1
Дата кодирования                         : 2024-03-07 14:46:43 UTC
Дата пометки                             : 2024-03-07 14:55:03 UTC
tagc                                     : public.main-program-content
Аудио #3
Идентификатор                            : 4
Формат                                   : AAC LC
Формат/Информация                        : Advanced Audio Codec Low Complexity
Идентификатор кодека                     : mp4a-40-2
Продолжительность                        : 1 ч. 26 м.
Продолжительность оригинала              : 1 ч. 26 м.
Вид битрейта                             : Переменный
Битрейт                                  : 230 Кбит/сек
Максимальный битрейт                     : 424 Кбит/сек
Каналы                                   : 2 канала
Channel layout                           : L R
Частота                                  : 48,0 КГц
Частота кадров                           : 46,875 кадров/сек (1024 SPF)
Метод сжатия                             : С потерями
Размер потока                            : 143 Мбайт (1%)
Размер потока оригинала                  : 143 Мбайт (1%)
Язык                                     : Russian
Default                                  : Нет
Alternate group                          : 1
Дата кодирования                         : 2024-03-07 14:46:43 UTC
Дата пометки                             : 2024-03-07 14:49:06 UTC
Fallback From                            : 9
tagc                                     : public.main-program-content
Аудио #4
Идентификатор                            : 5
Формат                                   : AAC LC
Формат/Информация                        : Advanced Audio Codec Low Complexity
Идентификатор кодека                     : mp4a-40-2
Продолжительность                        : 1 ч. 26 м.
Вид битрейта                             : Переменный
Битрейт                                  : 179 Кбит/сек
Максимальный битрейт                     : 204 Кбит/сек
Каналы                                   : 2 канала
Channel layout                           : L R
Частота                                  : 48,0 КГц
Частота кадров                           : 46,875 кадров/сек (1024 SPF)
Метод сжатия                             : С потерями
Размер потока                            : 111 Мбайт (1%)
Язык                                     : Russian
Default                                  : Нет
Alternate group                          : 1
Дата кодирования                         : 2024-03-07 14:46:43 UTC
Дата пометки                             : 2024-03-07 14:55:03 UTC
tagc                                     : public.auxiliary-content
Аудио #5
Идентификатор                            : 6
Формат                                   : AAC LC
Формат/Информация                        : Advanced Audio Codec Low Complexity
Идентификатор кодека                     : mp4a-40-2
Продолжительность                        : 1 ч. 26 м.
Вид битрейта                             : Переменный
Битрейт                                  : 226 Кбит/сек
Максимальный битрейт                     : 351 Кбит/сек
Каналы                                   : 2 канала
Channel layout                           : L R
Частота                                  : 48,0 КГц
Частота кадров                           : 46,875 кадров/сек (1024 SPF)
Метод сжатия                             : С потерями
Размер потока                            : 140 Мбайт (1%)
Язык                                     : Ukrainian
Default                                  : Нет
Alternate group                          : 1
Дата кодирования                         : 2024-03-07 14:46:43 UTC
Дата пометки                             : 2024-03-07 14:55:03 UTC
tagc                                     : public.main-program-content
Аудио #6
Идентификатор                            : 7
Формат                                   : AAC LC
Формат/Информация                        : Advanced Audio Codec Low Complexity
Идентификатор кодека                     : mp4a-40-2
Продолжительность                        : 1 ч. 26 м.
Продолжительность оригинала              : 1 ч. 26 м.
Вид битрейта                             : Переменный
Битрейт                                  : 230 Кбит/сек
Максимальный битрейт                     : 409 Кбит/сек
Каналы                                   : 2 канала
Channel layout                           : L R
Частота                                  : 48,0 КГц
Частота кадров                           : 46,875 кадров/сек (1024 SPF)
Метод сжатия                             : С потерями
Размер потока                            : 143 Мбайт (1%)
Размер потока оригинала                  : 143 Мбайт (1%)
Язык                                     : English
Default                                  : Нет
Alternate group                          : 1
Дата кодирования                         : 2024-03-07 14:46:43 UTC
Дата пометки                             : 2024-03-07 14:49:08 UTC
Fallback From                            : 10
tagc                                     : public.main-program-content
Аудио #7
Идентификатор                            : 8
Формат                                   : AC-3
Формат/Информация                        : Audio Coding 3
Коммерческое название                    : Dolby Digital
Идентификатор кодека                     : ac-3
Продолжительность                        : 1 ч. 26 м.
Вид битрейта                             : Постоянный
Битрейт                                  : 640 Кбит/сек
Каналы                                   : 6 каналов
Channel layout                           : L R C LFE Ls Rs
Частота                                  : 48,0 КГц
Частота кадров                           : 31,250 кадров/сек (1536 SPF)
Метод сжатия                             : С потерями
Размер потока                            : 397 Мбайт (3%)
Язык                                     : Russian
Service kind                             : Complete Main
Default                                  : Inherited From: 2
Alternate group                          : 1
Дата кодирования                         : 2024-03-07 14:46:43 UTC
Дата пометки                             : 2024-03-07 14:49:06 UTC
Fallback To                              : 2
tagc                                     : public.main-program-content
Аудио #8
Идентификатор                            : 9
Формат                                   : AC-3
Формат/Информация                        : Audio Coding 3
Коммерческое название                    : Dolby Digital
Идентификатор кодека                     : ac-3
Продолжительность                        : 1 ч. 26 м.
Вид битрейта                             : Постоянный
Битрейт                                  : 640 Кбит/сек
Каналы                                   : 6 каналов
Channel layout                           : L R C LFE Ls Rs
Частота                                  : 48,0 КГц
Частота кадров                           : 31,250 кадров/сек (1536 SPF)
Метод сжатия                             : С потерями
Размер потока                            : 397 Мбайт (3%)
Язык                                     : Russian
Service kind                             : Complete Main
Default                                  : Нет
Alternate group                          : 1
Дата кодирования                         : 2024-03-07 14:46:43 UTC
Дата пометки                             : 2024-03-07 14:49:06 UTC
Fallback To                              : 4
tagc                                     : public.main-program-content
Аудио #9
Идентификатор                            : 10
Формат                                   : AC-3
Формат/Информация                        : Audio Coding 3
Коммерческое название                    : Dolby Digital
Идентификатор кодека                     : ac-3
Продолжительность                        : 1 ч. 26 м.
Вид битрейта                             : Постоянный
Битрейт                                  : 640 Кбит/сек
Каналы                                   : 6 каналов
Channel layout                           : L R C LFE Ls Rs
Частота                                  : 48,0 КГц
Частота кадров                           : 31,250 кадров/сек (1536 SPF)
Метод сжатия                             : С потерями
Размер потока                            : 397 Мбайт (3%)
Язык                                     : English
Service kind                             : Complete Main
Default                                  : Нет
Alternate group                          : 1
Дата кодирования                         : 2024-03-07 14:46:43 UTC
Дата пометки                             : 2024-03-07 14:49:08 UTC
Fallback To                              : 7
tagc                                     : public.main-program-content
Текст
Идентификатор                            : 11
Формат                                   : Timed Text
Режим смешивания                         : sbtl
Идентификатор кодека                     : tx3g
Продолжительность                        : 1 ч. 26 м.
Вид битрейта                             : Переменный
Битрейт                                  : 60 бит/сек
Частота кадров                           : 0,362 кадр/сек
Размер потока                            : 38,3 Кбайт (0%)
Язык                                     : English
Default                                  : Да
Forced                                   : Нет
Alternate group                          : 2
Дата кодирования                         : 2024-03-07 14:46:43 UTC
Дата пометки                             : 2024-03-07 14:55:03 UTC
Count of events                          : 950
tagc                                     : public.main-program-content
Меню
Идентификатор                            : 12
Формат                                   : Timed Text
Идентификатор кодека                     : text
Продолжительность                        : 1 ч. 26 м.
Язык                                     : English
Дата кодирования                         : 2024-03-07 14:55:03 UTC
Дата пометки                             : 2024-03-07 14:55:03 UTC
Вид битрейта                             : CBR
Menu For                                 : 1
00:00:00.000                             : Глава 01
00:16:28.904                             : Глава 02
00:23:40.502                             : Глава 03
00:34:24.771                             : Глава 04
00:44:17.905                             : Глава 05
00:54:34.020                             : Глава 06
01:07:30.629                             : Глава 07
01:14:02.354                             : Глава 08
01:23:55.697                             : Глава 09
Вид битрейта                             : Постоянный

Tunes Meta Tags:

Код:
Name: Мафия!
Artist: Jim Abrahams
Media Kind: Movies
HD Video: 1080p
Genre: комедия, криминал
Release Date: 1998-07-24T12:00:00Z
Long Description: Главный герой Дон Винченцо Кортино — глава удивительно неорганизованной преступной группировки. В результате мафиозных разборок на крестного отца совершается коварное покушение — в него стреляют 47 раз, и это заставляет Дона Кортино задуматься о смысле жизни.  Патриарху криминального мира нужен достойный преемник, который сможет окончательно дезорганизовать преступность в стране. У синьора Винченцо два сына: один — отважный герой войны, другой — законченный психопат и наркоман. Кого же выберет мудрый Дон?…
Rating: mpaa|PG-13|300|
Studio: Tapestry Films, Touchstone Pictures
Cast: Jay Mohr, Billy Burke, Christina Applegate, Pamela Gidley, Olympia Dukakis, Lloyd Bridges, Jason Fuchs, Joe Viterelli, Tony Lo Bianco, Blake Hammond, Philip Suriano, Vincent Pastore, Marisol Nichols, Carol Ann Susi, Gregory Sierra, Sofia Milos, Anthony Crivello, Andreas Katsulas, Joseph R. Sicari, Martin Charles Warner, Deep Roy, Alex Trebek, Isabel Sanford, Sherman Hemsley, Florence Griffith Joyner, Karen Leigh Hopkins, Don Cornelius, Richard Abraham, Jack I. Bernstein, Don Bovingloh, Louis Mandylor, Seth Adkins, Sebastian Aza, Frank Birney, T.J. Cannata, Allyson Call, James Costa, Jason Davis, Jerry Haleva
Director: Jim Abrahams
Producers: Bill Badalato
Executive Producer: Peter Abrams, Robert L. Levy
Screenwriters: Michael McManus, Jim Abrahams, Greg Norberg
Composer: John Frizzell

Скриншоты:

-
Релиз подготовлен для просмотра на Apple TV, iPad, iPhone, iPod Touch.
Для просмотра данного релиза на компьютере с ОС Windows рекомендуется использовать VLC media player
Download

Скачать .torrent файл

Сайт не распространяет и не хранит электронные версии произведений, а лишь предоставляет доступ к создаваемому пользователями каталогу ссылок на торрент-файлы, которые содержат только списки хеш-сумм

 

pjw


Thank You!!
 
logo
Error