Красотки в бегах / Drive-Away Dolls (Итан Коэн) [2024 г., комедия, криминал, WEB-DL 1080p][MVO]

Страницы:  1

Ответить
Автор
Сообщение

SkyMac


Красотки в бегах / Drive-Away Dolls- Год выпуска: 2024
Производство: Великобритания, США / Focus Features, Working Title Films
Жанр: комедия, криминал
Продолжительность: 01:24:17
Перевод: многоголосый любительский
Субтитры: английские
Режиссёр: Итан Коэн
Продюсер: Тим Беван, Итан Коэн, Триша Кук
Сценарий: Итан Коэн, Триша Кук
Премьера в мире: 22 февраля 2024
MPPA: R (лицам до 17 лет обязательно присутствие взрослого)
IMDB: 5.9
Kinopoisk: -
В ролях: Маргарет Куолли, Джеральдин Висванатан, Бини Фелдштейн, Колман Доминго, Педро Паскаль, Билл Кэмп, Мэтт Дэймон, Джои Злотник, С.Дж. Уилсон, Конни Джексон
Описание:
Тусовщица Джейми и её скромная подруга Мэриан отправляются на машине в Таллахасси, но все быстро идет наперекосяк, когда по дороге они сталкиваются с группой неумелых преступников.
Качество: WEB-DL 1080p
Формат: M4V
Видео кодек: H.264
Аудио кодек: AAC/AC3
Видео: AVC/H.264, 1920x1034, ~ 6654 kbps
Аудио 1: AAC, 2 ch, 48 kHz, 186 Kbps | Русский (MVO, AlphaProject)
Аудио 2: AAC, 2 ch, 48 kHz, 230 Kbps | Английский
Аудио 3: AC3, 6 ch, 48 kHz, 640 Kbps | Английский

MediaInfo:

Код:
Общее
Полное имя                               : /Volumes/HDD/Movies HDD/Drive-Away Dolls (2024) WEB-DL [1080p].m4v
Формат                                   : MPEG-4
Идентификатор кодека                     : M4V  (M4V /M4A /mp42/isom)
Размер файла                             : 4,54 Гбайт
Продолжительность                        : 1 ч. 24 м.
Режим общего битрейта                    : Переменный
Общий поток                              : 7 705 Кбит/сек
Частота кадров                           : 23,976 кадра/сек
Название фильма                          : Красотки в бегах
Исполнитель                              : Ethan Coen
Композитор                               : Carter Burwell
Режиссёр                                 : Ethan Coen
Исполнитель                              : Margaret Qualley / Geraldine Viswanathan / Beanie Feldstein / Joey Slotnick / C.J. Wilson / Colman Domingo / Pedro Pascal / Matt Damon / Annie Gonzalez / Gordon MacDonald / Sam Vartholomeos / John Menchion / Michael Counihan / Abby Hilden / Haley Holmes / Connie Jackson / Bill Camp / Fatima Fine / Sam Mazzei / Jordan Zatawski / Samsara Yett / Savanna Ziegler / Michael Worden / Braxton McCollum / Daniel Kirkman / Layne Lazor / Phil McFall / Angelo Maldonado Jr. / Cristina Contreras / Michael Edelstein / Micaela Minner / Billy Hough / Alex Halpern / Angela Boehm / Josh Flitter / Miley Cyrus
Сценарист                                : Ethan Coen / Tricia Cooke
Продюсер                                 : Ethan Coen / Tricia Cooke / Tim Bevan / Eric Fellner / Robert Graf
Студия-производитель                     : Working Title Films, Focus Features
Жанр                                     : комедия, боевик, криминал
Тип содержимого                          : Short Film
Дата записи                              : 2024-02-22 12:00:00 UTC
Дата кодирования                         : 2024-03-13 15:12:54 UTC
Дата пометки                             : 2024-03-13 15:15:37 UTC
Обложка                                  : Yes
LongDescription                          : Тусовщица Джейми и её скромная подруга Мэриан отправляются на машине в Таллахасси, но все быстро идет наперекосяк, когда по дороге они сталкиваются с группой неумелых преступников.
ContentRating                            : mpaa|R|400|
Видео
Идентификатор                            : 1
Формат                                   : AVC
Формат/Информация                        : Advanced Video Codec
Профиль формата                          : High@L4
Настройки формата                        : CABAC / 4 Ref Frames
Параметр CABAC формата                   : Да
Параметр RefFrames формата               : 4 кадра
Идентификатор кодека                     : avc1
Идентификатор кодека/Информация          : Advanced Video Coding
Продолжительность                        : 1 ч. 24 м.
Битрейт                                  : 6 654 Кбит/сек
Ширина                                   : 1 920 пикселей
Высота                                   : 1 034 пикселя
Соотношение сторон                       : 1,85:1
Режим частоты кадров                     : Переменный
Частота кадров                           : 23,976 (24000/1001) кадра/сек
Минимальная частота кадров               : 23,810 кадра/сек
Максимальная частота кадров              : 24,390 кадра/сек
Частота кадров в оригинале               : 47,952 (48000/1001) кадров/сек
Цветовое пространство                    : YUV
Субдискретизация насыщенности            : 4:2:0
Битовая глубина                          : 8 бит
Тип развёртки                            : Прогрессивная
Бит/(Пиксели*Кадры)                      : 0.140
Размер потока                            : 3,91 Гбайт (86%)
Язык                                     : English
Дата кодирования                         : 2024-03-13 15:12:54 UTC
Дата пометки                             : 2024-03-13 15:15:36 UTC
Цветовой диапазон                        : Limited
Основные цвета                           : BT.709
Характеристики трансфера                 : BT.709
Коэффициенты матрицы                     : BT.709
Codec configuration box                  : avcC
Аудио #1
Идентификатор                            : 2
Формат                                   : AAC LC
Формат/Информация                        : Advanced Audio Codec Low Complexity
Идентификатор кодека                     : mp4a-40-2
Продолжительность                        : 1 ч. 24 м.
Вид битрейта                             : Переменный
Битрейт                                  : 186 Кбит/сек
Максимальный битрейт                     : 207 Кбит/сек
Каналы                                   : 2 канала
Channel layout                           : L R
Частота                                  : 48,0 КГц
Частота кадров                           : 46,875 кадров/сек (1024 SPF)
Метод сжатия                             : С потерями
Размер потока                            : 112 Мбайт (2%)
Язык                                     : Russian
Default                                  : Да
Alternate group                          : 1
Дата кодирования                         : 2024-03-13 15:12:54 UTC
Дата пометки                             : 2024-03-13 15:15:36 UTC
tagc                                     : public.main-program-content
Аудио #2
Идентификатор                            : 3
Формат                                   : AAC LC
Формат/Информация                        : Advanced Audio Codec Low Complexity
Идентификатор кодека                     : mp4a-40-2
Продолжительность                        : 1 ч. 24 м.
Продолжительность оригинала              : 1 ч. 24 м.
Вид битрейта                             : Переменный
Битрейт                                  : 230 Кбит/сек
Максимальный битрейт                     : 414 Кбит/сек
Каналы                                   : 2 канала
Channel layout                           : L R
Частота                                  : 48,0 КГц
Частота кадров                           : 46,875 кадров/сек (1024 SPF)
Метод сжатия                             : С потерями
Размер потока                            : 138 Мбайт (3%)
Размер потока оригинала                  : 138 Мбайт (3%)
Язык                                     : English
Default                                  : Нет
Alternate group                          : 1
Дата кодирования                         : 2024-03-13 15:12:54 UTC
Дата пометки                             : 2024-03-13 15:14:35 UTC
Fallback From                            : 4
tagc                                     : public.main-program-content
Аудио #3
Идентификатор                            : 4
Формат                                   : AC-3
Формат/Информация                        : Audio Coding 3
Коммерческое название                    : Dolby Digital
Идентификатор кодека                     : ac-3
Продолжительность                        : 1 ч. 24 м.
Вид битрейта                             : Постоянный
Битрейт                                  : 640 Кбит/сек
Каналы                                   : 6 каналов
Channel layout                           : L R C LFE Ls Rs
Частота                                  : 48,0 КГц
Частота кадров                           : 31,250 кадров/сек (1536 SPF)
Метод сжатия                             : С потерями
Размер потока                            : 385 Мбайт (8%)
Язык                                     : English
Service kind                             : Complete Main
Default                                  : Нет
Alternate group                          : 1
Дата кодирования                         : 2024-03-13 15:12:54 UTC
Дата пометки                             : 2024-03-13 15:14:34 UTC
Fallback To                              : 3
tagc                                     : public.main-program-content
Текст
Идентификатор                            : 5
Формат                                   : Timed Text
Режим смешивания                         : sbtl
Идентификатор кодека                     : tx3g
Продолжительность                        : 1 ч. 23 м.
Вид битрейта                             : Переменный
Битрейт                                  : 88 бит/сек
Частота кадров                           : 0,408 кадр/сек
Размер потока                            : 54,2 Кбайт (0%)
Язык                                     : English
Default                                  : Да
Forced                                   : Нет
Alternate group                          : 2
Дата кодирования                         : 2024-03-13 15:12:54 UTC
Дата пометки                             : 2024-03-13 15:15:36 UTC
Count of events                          : 1626
tagc                                     : public.main-program-content

Tunes Meta Tags:

Код:
Name: Красотки в бегах
Artist: Ethan Coen
Media Kind: Movies
HD Video: 1080p
Genre: комедия, боевик, криминал
Release Date: 2024-02-22T12:00:00Z
Long Description: Тусовщица Джейми и её скромная подруга Мэриан отправляются на машине в Таллахасси, но все быстро идет наперекосяк, когда по дороге они сталкиваются с группой неумелых преступников.
Rating: mpaa|R|400|
Studio: Working Title Films, Focus Features
Cast: Margaret Qualley, Geraldine Viswanathan, Beanie Feldstein, Joey Slotnick, C.J. Wilson, Colman Domingo, Pedro Pascal, Matt Damon, Annie Gonzalez, Gordon MacDonald, Sam Vartholomeos, John Menchion, Michael Counihan, Abby Hilden, Haley Holmes, Connie Jackson, Bill Camp, Fatima Fine, Sam Mazzei, Jordan Zatawski, Samsara Yett, Savanna Ziegler, Michael Worden, Braxton McCollum, Daniel Kirkman, Layne Lazor, Phil McFall, Angelo Maldonado Jr., Cristina Contreras, Michael Edelstein, Micaela Minner, Billy Hough, Alex Halpern, Angela Boehm, Josh Flitter, Miley Cyrus
Director: Ethan Coen
Producers: Ethan Coen, Tricia Cooke, Tim Bevan, Eric Fellner, Robert Graf
Screenwriters: Ethan Coen, Tricia Cooke
Composer: Carter Burwell

Скриншоты:

-
Релиз подготовлен для просмотра на Apple TV, iPad, iPhone, iPod Touch.
Для просмотра данного релиза на компьютере с ОС Windows рекомендуется использовать VLC media player
Download

Скачать .torrent файл

Сайт не распространяет и не хранит электронные версии произведений, а лишь предоставляет доступ к создаваемому пользователями каталогу ссылок на торрент-файлы, которые содержат только списки хеш-сумм

 
logo
Error