Хардбол / Hardball (Брайан Роббинс) [2001 г., драма, комедия, спорт, BDRip 720p][Dub, MVO, AVO]

Страницы:  1

Ответить
Автор
Сообщение

SkyMac


Хардбол / Hardball«В игре, где все ставки проигрышные, ему нечего терять...»- Год выпуска: 2001
Производство: Германия, США / Fireworks Pictures, GHS Productions KG, Munich Film Partners & Company (MFP) GHS Productions, Nides/McCormick Productions, Paramount Pictures
Жанр: драма, комедия, спорт
Продолжительность: 01:46:01
Перевод: дублированный, профессиональный многоголосый, авторский одноголосый
Субтитры: русские, английские
Режиссёр: Брайан Роббинс
Продюсер: Тина Найдс, Брайан Роббинс, Херб Гейнс
Сценарий: Джон Гэйтинс, Дэниэл Койл
Премьера в мире: 10 сентября 2001
Премьера в России: 14 февраля 2002
Рейтинг MPAA: R (лицам до 17 лет обязательно присутствие взрослого)
Возраст: 12+ (зрителям, достигшим 12 лет)
IMDB: 6.4
Kinopoisk: 7.1
В ролях: Киану Ривз, Дайан Лэйн, Джон Хоукс, Брайан Хирн, Джулиан Гриффит, Майкл Б. Джордан, А. Делон Эллис мл., Кристофер Лофтон, Майкл Перкинс, Брайан М. Рид
Описание:
Чтобы расплатиться с долгами, мелкий спекулянт, картежник и выпивоха вынужден тренировать бейсбольную команду - самую худшую, какую только можно найти в Чикаго. Связанные с этим драматические и комедийные перипетии неожиданно изменяют к лучшему и его собственную жизнь.
Качество: BDRip 720p
Формат: M4V
Видео кодек: H.264
Аудио кодек: AAC/AC3
Видео: AVC/H.264, 1280x720, ~ 12,0 Mbps
Аудио 01: AAC, 2 ch, 48 kHz, 226 Kbps | Русский (Dub, R5)
Аудио 02: AAC, 2 ch, 48 kHz, 230 Kbps | Русский (MVO)
Аудио 03: AAC, 2 ch, 48 kHz, 231 Kbps | Русский (AVO, Е. Гранкин)
Аудио 04: AAC, 2 ch, 48 kHz, 229 Kbps | Украинский (MVO, АМС)
Аудио 05: AAC, 2 ch, 48 kHz, 181 Kbps | Украинский (MVO, Кино)
Аудио 06: AAC, 2 ch, 48 kHz, 231 Kbps | Английский
Аудио 07: AAC, 2 ch, 48 kHz, 228 Kbps | Английский (Commentary With Director Brian Robbins and Screenwriter John Gatins)
Аудио 08: AC3, 6 ch, 48 kHz, 448 Kbps | Русский (Dub, R5)
Аудио 09: AC3, 6 ch, 48 kHz, 384 Kbps | Русский (MVO)
Аудио 10: AC3, 6 ch, 48 kHz, 640 Kbps | Русский (AVO, Е. Гранкин)
Аудио 11: AC3, 6 ch, 48 kHz, 640 Kbps | Английский

MediaInfo:

Код:
Общее
Полное имя                               : /Volumes/HDD/Movies HDD/Hardball (2001) BDRip [720p].m4v
Формат                                   : MPEG-4
Идентификатор кодека                     : M4V  (M4V /M4A /mp42/isom)
Размер файла                             : 11,6 Гбайт
Продолжительность                        : 1 ч. 46 м.
Режим общего битрейта                    : Переменный
Общий поток                              : 15,7 Мбит/сек
Частота кадров                           : 23,976 кадра/сек
Название фильма                          : Хардбол
Исполнитель                              : Brian Robbins
Режиссёр                                 : Brian Robbins
Исполнитель                              : Keanu Reeves / Diane Lane / Michael B. Jordan / D.B. Sweeney / John Hawkes / Bryan Hearne / Julian Griffith / DeWayne Warren / Kris D. Lofton / Mark Robert Ellis / Graham Beckel / Michael McGlone / Dawn Lewis / Mark Margolis / Greg Sandquist / Jacqueline Williams / Michael B. Chait / Stephen Cinabro / Tom Milanovich / Kwame Amoaku / Vince Green / Paul Turner / Sterling 'Steelo' Brim / A. Delon Ellis Jr. / Michael Perkins / Brian M. Reed / Carol Hall / Freeman Coffey / Sammy Sosa / Andre Morgan / Reginald McKinley / Adam Tomei / Ronnel Taylor / Aaron Evans / Alexander Telles / Josefus Duanah / Jeffery Gatlin / Steve Abbott / John Anton / Dave Daniels / Michael Mili / Jerry Stanecki / Joe Wachowski / Toussaint Waterman / Johnny Yono
Сценарист                                : John Gatins / Daniel Coyle
Продюсер                                 : Brian Robbins / Michael Tollin / Tina Nides
Исполнительный продюсер                  : Erwin Stoff, Kevin McCormick, Herb Gains
Студия-производитель                     : Paramount, Munich Film Partners & Company (MFP) GHS Productions, GHS Productions KG, Nides/McCormick Productions
Жанр                                     : драма
Тип содержимого                          : Short Film
Дата записи                              : 2001-09-14 12:00:00 UTC
Дата кодирования                         : 2024-03-19 15:40:28 UTC
Дата пометки                             : 2024-03-19 15:49:41 UTC
Обложка                                  : Yes
LongDescription                          : Чтобы расплатиться с долгами, мелкий спекулянт, картежник и выпивоха вынужден тренировать бейсбольную команду — самую худшую, какую только можно найти в Чикаго. Связанные с этим драматические и комедийные перипетии неожиданно изменяют к лучшему и его собственную жизнь.
HDVideo                                  : Yes
ContentRating                            : mpaa|PG-13|300|
Видео #1
Идентификатор                            : 1
Формат                                   : AVC
Формат/Информация                        : Advanced Video Codec
Профиль формата                          : High@L4.1
Настройки формата                        : CABAC / 9 Ref Frames
Параметр CABAC формата                   : Да
Параметр RefFrames формата               : 9 кадров
Идентификатор кодека                     : avc1
Идентификатор кодека/Информация          : Advanced Video Coding
Продолжительность                        : 1 ч. 46 м.
Битрейт                                  : 12,0 Мбит/сек
Ширина                                   : 1 280 пикселей
Высота                                   : 720 пикселей
Соотношение сторон                       : 16:9
Режим частоты кадров                     : Переменный
Частота кадров                           : 23,976 (24000/1001) кадра/сек
Минимальная частота кадров               : 23,810 кадра/сек
Максимальная частота кадров              : 24,390 кадра/сек
Цветовое пространство                    : YUV
Субдискретизация насыщенности            : 4:2:0
Битовая глубина                          : 8 бит
Тип развёртки                            : Прогрессивная
Бит/(Пиксели*Кадры)                      : 0.543
Размер потока                            : 8,88 Гбайт (76%)
Библиотека кодирования                   : x264 core 164 r3179+50 a40a721 tMod@devel [(8 & 10)-bit@all X86_64]
Настройки программы                      : cabac=1 / ref=9 / deblock=1:-3:-3 / analyse=0x3:0x133 / me=umh / subme=11 / psy=1 / fade_compensate=0.00 / psy_rd=1.00:0.00 / mixed_ref=1 / me_range=32 / chroma_me=1 / trellis=2 / 8x8dct=1 / cqm=0 / deadzone=21,11 / fast_pskip=0 / chroma_qp_offset=-2 / threads=22 / lookahead_threads=5 / sliced_threads=0 / nr=0 / decimate=0 / interlaced=0 / bluray_compat=0 / constrained_intra=0 / fgo=0 / bframes=10 / b_pyramid=2 / b_adapt=2 / b_bias=0 / direct=3 / weightb=1 / open_gop=0 / weightp=2 / keyint=250 / keyint_min=23 / scenecut=40 / intra_refresh=0 / rc=crf / mbtree=0 / crf=15.9000 / qcomp=0.60 / qpmin=0:0:0 / qpmax=69:69:69 / qpstep=4 / ip_ratio=1.30 / pb_ratio=1.20 / aq=3:0.75 / aq-sensitivity=10.00 / aq-factor=1.00:1.00:1.00:1.00 / aq2=0 / aq3=0
Язык                                     : English
Дата кодирования                         : 2024-03-19 15:40:28 UTC
Дата пометки                             : 2024-03-19 15:49:18 UTC
Цветовой диапазон                        : Limited
Основные цвета                           : BT.709
Характеристики трансфера                 : BT.709
Коэффициенты матрицы                     : BT.709
Menus                                    : 17,18
Codec configuration box                  : avcC
Видео #2
Идентификатор                            : 18
Формат                                   : JPEG
Идентификатор кодека                     : jpeg
Продолжительность                        : 1 ч. 46 м.
Вид битрейта                             : Переменный
Битрейт                                  : 1 250 бит/сек
Ширина                                   : 640 пикселей
Высота                                   : 360 пикселей
Соотношение сторон                       : 16:9
Режим частоты кадров                     : Переменный
Частота кадров                           : 0,003 кадр/сек
Минимальная частота кадров               : 0,002 кадр/сек
Максимальная частота кадров              : 0,006 кадр/сек
Цветовое пространство                    : YUV
Субдискретизация насыщенности            : 4:2:0
Битовая глубина                          : 8 бит
Метод сжатия                             : С потерями
Бит/(Пиксели*Кадры)                      : 1.808
Размер потока                            : 814 Кбайт (0%)
Язык                                     : English
Default                                  : Нет
Дата кодирования                         : 2024-03-19 15:49:39 UTC
Дата пометки                             : 2024-03-19 15:49:40 UTC
Menu For                                 : 1
ColorSpace_ICC                           : RGB
Аудио #1
Идентификатор                            : 2
Формат                                   : AAC LC
Формат/Информация                        : Advanced Audio Codec Low Complexity
Идентификатор кодека                     : mp4a-40-2
Продолжительность                        : 1 ч. 46 м.
Вид битрейта                             : Переменный
Битрейт                                  : 226 Кбит/сек
Максимальный битрейт                     : 380 Кбит/сек
Каналы                                   : 2 канала
Channel layout                           : L R
Частота                                  : 48,0 КГц
Частота кадров                           : 46,875 кадров/сек (1024 SPF)
Метод сжатия                             : С потерями
Размер потока                            : 171 Мбайт (1%)
Язык                                     : Russian
Default                                  : Да
Alternate group                          : 1
Дата кодирования                         : 2024-03-19 15:40:28 UTC
Дата пометки                             : 2024-03-19 15:49:18 UTC
Fallback From                            : 9
tagc                                     : public.main-program-content
Аудио #2
Идентификатор                            : 3
Формат                                   : AAC LC
Формат/Информация                        : Advanced Audio Codec Low Complexity
Идентификатор кодека                     : mp4a-40-2
Продолжительность                        : 1 ч. 46 м.
Вид битрейта                             : Переменный
Битрейт                                  : 230 Кбит/сек
Максимальный битрейт                     : 370 Кбит/сек
Каналы                                   : 2 канала
Channel layout                           : L R
Частота                                  : 48,0 КГц
Частота кадров                           : 46,875 кадров/сек (1024 SPF)
Метод сжатия                             : С потерями
Размер потока                            : 174 Мбайт (1%)
Язык                                     : Russian
Default                                  : Нет
Alternate group                          : 1
Дата кодирования                         : 2024-03-19 15:40:28 UTC
Дата пометки                             : 2024-03-19 15:49:18 UTC
Fallback From                            : 10
tagc                                     : public.auxiliary-content
Аудио #3
Идентификатор                            : 4
Формат                                   : AAC LC
Формат/Информация                        : Advanced Audio Codec Low Complexity
Идентификатор кодека                     : mp4a-40-2
Продолжительность                        : 1 ч. 46 м.
Вид битрейта                             : Переменный
Битрейт                                  : 231 Кбит/сек
Максимальный битрейт                     : 381 Кбит/сек
Каналы                                   : 2 канала
Channel layout                           : L R
Частота                                  : 48,0 КГц
Частота кадров                           : 46,875 кадров/сек (1024 SPF)
Метод сжатия                             : С потерями
Размер потока                            : 175 Мбайт (1%)
Язык                                     : Russian
Default                                  : Нет
Alternate group                          : 1
Дата кодирования                         : 2024-03-19 15:40:28 UTC
Дата пометки                             : 2024-03-19 15:49:18 UTC
Fallback From                            : 11
tagc                                     : public.auxiliary-content
Аудио #4
Идентификатор                            : 5
Формат                                   : AAC LC
Формат/Информация                        : Advanced Audio Codec Low Complexity
Идентификатор кодека                     : mp4a-40-2
Продолжительность                        : 1 ч. 46 м.
Вид битрейта                             : Переменный
Битрейт                                  : 229 Кбит/сек
Максимальный битрейт                     : 298 Кбит/сек
Каналы                                   : 2 канала
Channel layout                           : L R
Частота                                  : 48,0 КГц
Частота кадров                           : 46,875 кадров/сек (1024 SPF)
Метод сжатия                             : С потерями
Размер потока                            : 174 Мбайт (1%)
Язык                                     : Ukrainian
Default                                  : Нет
Alternate group                          : 1
Дата кодирования                         : 2024-03-19 15:40:28 UTC
Дата пометки                             : 2024-03-19 15:49:18 UTC
tagc                                     : public.main-program-content
Аудио #5
Идентификатор                            : 6
Формат                                   : AAC LC
Формат/Информация                        : Advanced Audio Codec Low Complexity
Идентификатор кодека                     : mp4a-40-2
Продолжительность                        : 1 ч. 46 м.
Вид битрейта                             : Переменный
Битрейт                                  : 181 Кбит/сек
Максимальный битрейт                     : 211 Кбит/сек
Каналы                                   : 2 канала
Channel layout                           : L R
Частота                                  : 48,0 КГц
Частота кадров                           : 46,875 кадров/сек (1024 SPF)
Метод сжатия                             : С потерями
Размер потока                            : 137 Мбайт (1%)
Язык                                     : Ukrainian
Default                                  : Нет
Alternate group                          : 1
Дата кодирования                         : 2024-03-19 15:40:28 UTC
Дата пометки                             : 2024-03-19 15:49:18 UTC
tagc                                     : public.auxiliary-content
Аудио #6
Идентификатор                            : 7
Формат                                   : AAC LC
Формат/Информация                        : Advanced Audio Codec Low Complexity
Идентификатор кодека                     : mp4a-40-2
Продолжительность                        : 1 ч. 46 м.
Вид битрейта                             : Переменный
Битрейт                                  : 231 Кбит/сек
Максимальный битрейт                     : 385 Кбит/сек
Каналы                                   : 2 канала
Channel layout                           : L R
Частота                                  : 48,0 КГц
Частота кадров                           : 46,875 кадров/сек (1024 SPF)
Метод сжатия                             : С потерями
Размер потока                            : 175 Мбайт (1%)
Язык                                     : English
Default                                  : Нет
Alternate group                          : 1
Дата кодирования                         : 2024-03-19 15:40:28 UTC
Дата пометки                             : 2024-03-19 15:49:18 UTC
Fallback From                            : 12
tagc                                     : public.main-program-content
Аудио #7
Идентификатор                            : 8
Формат                                   : AAC LC
Формат/Информация                        : Advanced Audio Codec Low Complexity
Идентификатор кодека                     : mp4a-40-2
Продолжительность                        : 1 ч. 46 м.
Вид битрейта                             : Переменный
Битрейт                                  : 228 Кбит/сек
Максимальный битрейт                     : 377 Кбит/сек
Каналы                                   : 2 канала
Channel layout                           : L R
Частота                                  : 48,0 КГц
Частота кадров                           : 46,875 кадров/сек (1024 SPF)
Метод сжатия                             : С потерями
Размер потока                            : 173 Мбайт (1%)
Язык                                     : English
Default                                  : Нет
Alternate group                          : 1
Дата кодирования                         : 2024-03-19 15:40:28 UTC
Дата пометки                             : 2024-03-19 15:49:18 UTC
tagc                                     : public.auxiliary-content
Аудио #8
Идентификатор                            : 9
Формат                                   : AC-3
Формат/Информация                        : Audio Coding 3
Коммерческое название                    : Dolby Digital
Идентификатор кодека                     : ac-3
Продолжительность                        : 1 ч. 46 м.
Вид битрейта                             : Постоянный
Битрейт                                  : 448 Кбит/сек
Каналы                                   : 6 каналов
Channel layout                           : L R C LFE Ls Rs
Частота                                  : 48,0 КГц
Частота кадров                           : 31,250 кадров/сек (1536 SPF)
Метод сжатия                             : С потерями
Размер потока                            : 340 Мбайт (3%)
Язык                                     : Russian
Service kind                             : Complete Main
Default                                  : Inherited From: 2
Alternate group                          : 1
Дата кодирования                         : 2024-03-19 15:40:28 UTC
Дата пометки                             : 2024-03-19 15:49:18 UTC
Fallback To                              : 2
tagc                                     : public.main-program-content
Аудио #9
Идентификатор                            : 10
Формат                                   : AC-3
Формат/Информация                        : Audio Coding 3
Коммерческое название                    : Dolby Digital
Идентификатор кодека                     : ac-3
Продолжительность                        : 1 ч. 46 м.
Вид битрейта                             : Постоянный
Битрейт                                  : 384 Кбит/сек
Каналы                                   : 6 каналов
Channel layout                           : L R C LFE Ls Rs
Частота                                  : 48,0 КГц
Частота кадров                           : 31,250 кадров/сек (1536 SPF)
Метод сжатия                             : С потерями
Размер потока                            : 291 Мбайт (2%)
Язык                                     : Russian
Service kind                             : Complete Main
Default                                  : Нет
Alternate group                          : 1
Дата кодирования                         : 2024-03-19 15:40:28 UTC
Дата пометки                             : 2024-03-19 15:49:18 UTC
Fallback To                              : 3
tagc                                     : public.auxiliary-content
Аудио #10
Идентификатор                            : 11
Формат                                   : AC-3
Формат/Информация                        : Audio Coding 3
Коммерческое название                    : Dolby Digital
Идентификатор кодека                     : ac-3
Продолжительность                        : 1 ч. 46 м.
Вид битрейта                             : Постоянный
Битрейт                                  : 640 Кбит/сек
Каналы                                   : 6 каналов
Channel layout                           : L R C LFE Ls Rs
Частота                                  : 48,0 КГц
Частота кадров                           : 31,250 кадров/сек (1536 SPF)
Метод сжатия                             : С потерями
Размер потока                            : 485 Мбайт (4%)
Язык                                     : Russian
Service kind                             : Complete Main
Default                                  : Нет
Alternate group                          : 1
Дата кодирования                         : 2024-03-19 15:40:28 UTC
Дата пометки                             : 2024-03-19 15:49:18 UTC
Fallback To                              : 4
tagc                                     : public.auxiliary-content
Аудио #11
Идентификатор                            : 12
Формат                                   : AC-3
Формат/Информация                        : Audio Coding 3
Коммерческое название                    : Dolby Digital
Идентификатор кодека                     : ac-3
Продолжительность                        : 1 ч. 46 м.
Вид битрейта                             : Постоянный
Битрейт                                  : 640 Кбит/сек
Каналы                                   : 6 каналов
Channel layout                           : L R C LFE Ls Rs
Частота                                  : 48,0 КГц
Частота кадров                           : 31,250 кадров/сек (1536 SPF)
Метод сжатия                             : С потерями
Размер потока                            : 485 Мбайт (4%)
Язык                                     : English
Service kind                             : Complete Main
Default                                  : Нет
Alternate group                          : 1
Дата кодирования                         : 2024-03-19 15:40:28 UTC
Дата пометки                             : 2024-03-19 15:49:18 UTC
Fallback To                              : 7
tagc                                     : public.main-program-content
Текст #1
Идентификатор                            : 13
Формат                                   : Timed Text
Режим смешивания                         : sbtl
Идентификатор кодека                     : tx3g
Продолжительность                        : 1 ч. 40 м.
Вид битрейта                             : Переменный
Битрейт                                  : 68 бит/сек
Частота кадров                           : 0,377 кадр/сек
Размер потока                            : 50,0 Кбайт (0%)
Язык                                     : Russian
Default                                  : Да
Forced                                   : Нет
Alternate group                          : 2
Дата кодирования                         : 2024-03-19 15:40:28 UTC
Дата пометки                             : 2024-03-19 15:49:18 UTC
Count of events                          : 1138
tagc                                     : public.main-program-content
Текст #2
Идентификатор                            : 14
Формат                                   : Timed Text
Режим смешивания                         : sbtl
Идентификатор кодека                     : tx3g
Продолжительность                        : 1 ч. 40 м.
Вид битрейта                             : Переменный
Битрейт                                  : 67 бит/сек
Частота кадров                           : 0,392 кадр/сек
Размер потока                            : 49,2 Кбайт (0%)
Язык                                     : English
Default                                  : Нет
Forced                                   : Нет
Alternate group                          : 2
Дата кодирования                         : 2024-03-19 15:40:28 UTC
Дата пометки                             : 2024-03-19 15:49:18 UTC
Count of events                          : 1185
tagc                                     : public.main-program-content
Текст #3
Идентификатор                            : 15
Формат                                   : Timed Text
Режим смешивания                         : sbtl
Идентификатор кодека                     : tx3g
Продолжительность                        : 1 ч. 45 м.
Вид битрейта                             : Переменный
Битрейт                                  : 87 бит/сек
Частота кадров                           : 0,491 кадр/сек
Размер потока                            : 67,3 Кбайт (0%)
Язык                                     : English
Default                                  : Нет
Forced                                   : Нет
Alternate group                          : 2
Дата кодирования                         : 2024-03-19 15:40:28 UTC
Дата пометки                             : 2024-03-19 15:49:18 UTC
Count of events                          : 1561
tagc                                     : public.accessibility.transcribes-spoken-dialog
Текст #4
Идентификатор                            : 16
Формат                                   : Timed Text
Режим смешивания                         : sbtl
Идентификатор кодека                     : tx3g
Продолжительность                        : 1 ч. 45 м.
Вид битрейта                             : Переменный
Битрейт                                  : 130 бит/сек
Частота кадров                           : 0,615 кадр/сек
Размер потока                            : 101 Кбайт (0%)
Язык                                     : English
Default                                  : Нет
Forced                                   : Нет
Alternate group                          : 2
Дата кодирования                         : 2024-03-19 15:40:28 UTC
Дата пометки                             : 2024-03-19 15:49:18 UTC
Count of events                          : 1952
tagc                                     : public.auxiliary-content
Меню
Идентификатор                            : 17
Формат                                   : Timed Text
Идентификатор кодека                     : text
Продолжительность                        : 1 ч. 46 м.
Язык                                     : English
Дата кодирования                         : 2024-03-19 15:49:18 UTC
Дата пометки                             : 2024-03-19 15:49:18 UTC
Вид битрейта                             : CBR
Menu For                                 : 1
00:00:00.000                             : Chapter 01
00:09:19.058                             : Chapter 02
00:15:21.796                             : Chapter 03
00:20:52.460                             : Chapter 04
00:28:19.656                             : Chapter 05
00:31:40.690                             : Chapter 06
00:34:41.371                             : Chapter 07
00:43:49.085                             : Chapter 08
00:47:31.182                             : Chapter 09
00:50:31.946                             : Chapter 10
00:54:13.876                             : Chapter 11
01:04:11.765                             : Chapter 12
01:08:08.251                             : Chapter 13
01:16:26.874                             : Chapter 14
01:25:22.200                             : Chapter 15
01:35:46.908                             : Chapter 16
Вид битрейта                             : Постоянный

Tunes Meta Tags:

Код:
Name: Хардбол
Artist: Brian Robbins
Media Kind: Movies
HD Video: 720p
Genre: драма
Release Date: 2001-09-14T12:00:00Z
Long Description: Чтобы расплатиться с долгами, мелкий спекулянт, картежник и выпивоха вынужден тренировать бейсбольную команду — самую худшую, какую только можно найти в Чикаго. Связанные с этим драматические и комедийные перипетии неожиданно изменяют к лучшему и его собственную жизнь.
Rating: mpaa|PG-13|300|
Studio: Paramount, Munich Film Partners & Company (MFP) GHS Productions, GHS Productions KG, Nides/McCormick Productions
Cast: Keanu Reeves, Diane Lane, Michael B. Jordan, D.B. Sweeney, John Hawkes, Bryan Hearne, Julian Griffith, DeWayne Warren, Kris D. Lofton, Mark Robert Ellis, Graham Beckel, Michael McGlone, Dawn Lewis, Mark Margolis, Greg Sandquist, Jacqueline Williams, Michael B. Chait, Stephen Cinabro, Tom Milanovich, Kwame Amoaku, Vince Green, Paul Turner, Sterling 'Steelo' Brim, A. Delon Ellis Jr., Michael Perkins, Brian M. Reed, Carol Hall, Freeman Coffey, Sammy Sosa, Andre Morgan, Reginald McKinley, Adam Tomei, Ronnel Taylor, Aaron Evans, Alexander Telles, Josefus Duanah, Jeffery Gatlin, Steve Abbott, John Anton, Dave Daniels, Michael Mili, Jerry Stanecki, Joe Wachowski, Toussaint Waterman, Johnny Yono
Director: Brian Robbins
Producers: Brian Robbins, Michael Tollin, Tina Nides
Executive Producer: Erwin Stoff, Kevin McCormick, Herb Gains
Screenwriters: John Gatins, Daniel Coyle

Знаете ли вы, что…

• Полностью книга Дэниела Койла называлась «Трудный мяч: Сезон в Проектах».
• Съемки высшей бейсбольной лиги происходили в Детройте.
• Мэр Чикаго Ричард Дэйли и другие городские должностные лица были очень обижены из-за профанации, произнесенной молодыми неграми в фильме. Хотя они и считают, что этот стереотипный диалог отразится плохо на молодых чернокожих и на Чикаго, никаких изменений в сценарий не вводилось.

Скриншоты:

-
Релиз подготовлен для просмотра на Apple TV, iPad, iPhone, iPod Touch.
Для просмотра данного релиза на компьютере с ОС Windows рекомендуется использовать VLC media player
Download

Скачать .torrent файл

Сайт не распространяет и не хранит электронные версии произведений, а лишь предоставляет доступ к создаваемому пользователями каталогу ссылок на торрент-файлы, которые содержат только списки хеш-сумм

 
logo
Error