1941 [Режиссёрская версия] / 1941 [Director's Cut] (Стивен Спилберг) [1979 г., боевик, комедия, военный, BDRip 1080p][MVO, AVO]

Страницы:  1

Ответить
Автор
Сообщение

SkyMac


1941 / 1941«A Comedy Spectacular!»- Год выпуска: 1979
Производство: США / Universal Pictures, Columbia Pictures Corporation
Жанр: боевик, комедия, военный
Продолжительность: 02:26:05
Перевод: Профессиональный многоголосый, авторский одноголосый
Субтитры: русские, английские
Режиссёр: Стивен Спилберг
Продюсер: Базз Фейтшанс, Джанет Хили, Майкл Кан
Сценарий: Роберт Земекис, Боб Гейл, Джон Милиус
Премьера в мире: 13 декабря 1979
Рейтинг MPAA: PG (рекомендуется присутствие родителей)
Возраст: 12+ (зрителям, достигшим 12 лет)
IMDB: 5.8
Kinopoisk: 6.3
В ролях: Дэн Эйкройд, Нед Битти, Джон Белуши, Лоррэйн Гари, Бобби Ди Чикко, Мюррэй Хэмилтон, Кристофер Ли, Тим Мэтисон, Тосиро Мифунэ, Уоррен Оутс
Описание:
Комедийный фильм о панике в Лос-Анджелесе после известий о нападении японцев на Перл-Харбор и о приближении японской подводной лодки к берегам Калифорнии с заданием уничтожить Голливуд.
Качество: BDRip 1080p
Формат: M4V
Видео кодек: H.264
Аудио кодек: AAC/AC3
Видео: AVC/H.264, 1920x814, ~ 12,5 Mbps
Аудио 1: AAC, 2 ch, 48 kHz, 230 Kbps | Русский (MVO)
Аудио 2: AAC, 2 ch, 48 kHz, 230 Kbps | Русский (MVO)
Аудио 3: AAC, 2 ch, 48 kHz, 230 Kbps | Русский (AVO, А. Гаврилов)
Аудио 4: AAC, 2 ch, 48 kHz, 181 Kbps | Украинский (MVO, Так Треба Продакшн)
Аудио 5: AAC, 2 ch, 48 kHz, 230 Kbps | Английский
Аудио 6: AC3, 6 ch, 48 kHz, 640 Kbps | Русский (MVO)
Аудио 7: AC3, 6 ch, 48 kHz, 384 Kbps | Русский (MVO)
Аудио 8: AC3, 6 ch, 48 kHz, 640 Kbps | Русский (AVO, А. Гаврилов)
Аудио 9: AC3, 6 ch, 48 kHz, 640 Kbps | Английский

MediaInfo:

Код:
Общее
Полное имя                               : /Volumes/HDD/Movies HDD/1941 [Director's Cut] (1979) BDRip [1080p].m4v
Формат                                   : MPEG-4
Идентификатор кодека                     : M4V  (M4V /M4A /mp42/isom)
Размер файла                             : 16,2 Гбайт
Продолжительность                        : 2 ч. 26 м.
Режим общего битрейта                    : Переменный
Общий поток                              : 15,9 Мбит/сек
Частота кадров                           : 23,976 кадра/сек
Название фильма                          : 1941
Исполнитель                              : Steven Spielberg
Композитор                               : John Williams
Режиссёр                                 : Steven Spielberg
Исполнитель                              : Dan Aykroyd / Ned Beatty / John Belushi / Lorraine Gary / Murray Hamilton / Christopher Lee / Tim Matheson / Toshirō Mifune / Warren Oates / Robert Stack / Treat Williams / Nancy Allen / Lucille Benson / Jordan Brian / John Candy / Elisha Cook Jr. / Eddie Deezen / Bobby Di Cicco / Dianne Kay / Perry Lang / Patti LuPone / J. Patrick McNamara / Frank McRae / Steven Mond / Slim Pickens / Wendie Jo Sperber / Lionel Stander / Dub Taylor / Iggie Wolfington / Christian Zika / Joe Flaherty / David L. Lander / Michael McKean / Susan Backlinie / E. Hampton Beagle / Deborah Benson / Don Calfa / Dave Cameron / Vito Carenzo / Mark Carlton / Gary Carlos Cervantes / Paul Cloud / Luis Contreras / Carol Culver / Lucinda Dooling / Gray Frederickson / Brian Frishman / Samuel Fuller / Marjorie Gaines / Dian Gallup / Denise Gallup / Trish Garland / Barbara Gannen / Brad Gorman / Jerry Hardin / Diane Hardin / Robert Houston / Audrey Landers / John Landis / Mark Marias / John McKee / Ronnie McMillan / Dan McNally / Dick Miller / Akio Mitamura / Antoinette Molinari / Walter Olkewicz / Mickey Rourke / Whitney Rydbeck / Donovan Scott / Kerry Sherman / Hiroshi Shimizu / Geno Silva / Rita Taggart / Maureen Teefy / Andy Tennant / Jack Thibeau / Galen Thompson / Frankie Verroca / John Voldstad / Carol Ann Williams / Jenny Williams / James Caan / Penny Marshall
Сценарист                                : Robert Zemeckis / Robert Zemeckis / John Milius / Bob Gale / Bob Gale
Продюсер                                 : Buzz Feitshans
Исполнительный продюсер                  : John Milius
Студия-производитель                     : Columbia Pictures, A-Team, Universal Pictures
Жанр                                     : комедия, военный
Тип содержимого                          : Short Film
Дата записи                              : 1979-12-14 12:00:00 UTC
Дата кодирования                         : 2024-03-20 19:12:27 UTC
Дата пометки                             : 2024-03-20 19:23:44 UTC
Обложка                                  : Yes
LongDescription                          : Комедийный фильм о панике в Лос-Анджелесе после известий о нападении японцев на Перл-Харбор и о приближении японской подводной лодки к берегам Калифорнии с заданием уничтожить Голливуд.
ContentRating                            : mpaa|PG|200|
Видео #1
Идентификатор                            : 1
Формат                                   : AVC
Формат/Информация                        : Advanced Video Codec
Профиль формата                          : High@L4.1
Настройки формата                        : CABAC / 5 Ref Frames
Параметр CABAC формата                   : Да
Параметр RefFrames формата               : 5 кадров
Идентификатор кодека                     : avc1
Идентификатор кодека/Информация          : Advanced Video Coding
Продолжительность                        : 2 ч. 26 м.
Битрейт                                  : 12,5 Мбит/сек
Ширина                                   : 1 920 пикселей
Высота                                   : 814 пикселей
Соотношение сторон                       : 2,35:1
Режим частоты кадров                     : Переменный
Частота кадров                           : 23,976 (24000/1001) кадра/сек
Минимальная частота кадров               : 23,810 кадра/сек
Максимальная частота кадров              : 24,390 кадра/сек
Цветовое пространство                    : YUV
Субдискретизация насыщенности            : 4:2:0
Битовая глубина                          : 8 бит
Тип развёртки                            : Прогрессивная
Бит/(Пиксели*Кадры)                      : 0.334
Размер потока                            : 12,8 Гбайт (79%)
Библиотека кодирования                   : x264 core 142 r2431+42 c69a006 tMod [8-bit@4:2:0 X86_64]
Настройки программы                      : cabac=1 / ref=5 / deblock=1:-3:-3 / analyse=0x3:0x113 / me=umh / subme=11 / psy=1 / fade_compensate=0.00 / psy_rd=1.00:0.00 / mixed_ref=1 / me_range=32 / chroma_me=1 / trellis=2 / 8x8dct=1 / cqm=0 / deadzone=21,11 / fast_pskip=0 / chroma_qp_offset=-2 / threads=12 / lookahead_threads=2 / sliced_threads=0 / nr=0 / decimate=0 / interlaced=0 / bluray_compat=0 / constrained_intra=0 / fgo=0 / bframes=9 / b_pyramid=2 / b_adapt=2 / b_bias=0 / direct=3 / weightb=1 / open_gop=0 / weightp=2 / keyint=240 / keyint_min=23 / scenecut=40 / intra_refresh=0 / rc=2pass / mbtree=0 / bitrate=12500 / ratetol=1.0 / qcomp=0.60 / qpmin=0:0:0 / qpmax=69:69:69 / qpstep=4 / cplxblur=20.0 / qblur=0.5 / ip_ratio=1.40 / pb_ratio=1.30 / aq=4:0.80 / aq-sensitivity=10.00 / aq-factor=1.00:1.00:1.00 / aq2=0 / aq3=0
Язык                                     : English
Дата кодирования                         : 2024-03-20 19:12:27 UTC
Дата пометки                             : 2024-03-20 19:23:18 UTC
Menus                                    : 13,14
Codec configuration box                  : avcC
Видео #2
Идентификатор                            : 14
Формат                                   : JPEG
Идентификатор кодека                     : jpeg
Продолжительность                        : 2 ч. 26 м.
Вид битрейта                             : Переменный
Битрейт                                  : 480 бит/сек
Ширина                                   : 640 пикселей
Высота                                   : 271 пикселей
Соотношение сторон                       : 2,35:1
Режим частоты кадров                     : Переменный
Частота кадров                           : 0,002 кадр/сек
Минимальная частота кадров               : 0,001 кадр/сек
Максимальная частота кадров              : 0,005 кадр/сек
Цветовое пространство                    : YUV
Субдискретизация насыщенности            : 4:2:0
Битовая глубина                          : 8 бит
Метод сжатия                             : С потерями
Бит/(Пиксели*Кадры)                      : 1.384
Размер потока                            : 527 Кбайт (0%)
Язык                                     : English
Default                                  : Нет
Дата кодирования                         : 2024-03-20 19:23:42 UTC
Дата пометки                             : 2024-03-20 19:23:43 UTC
Menu For                                 : 1
ColorSpace_ICC                           : RGB
Аудио #1
Идентификатор                            : 2
Формат                                   : AAC LC
Формат/Информация                        : Advanced Audio Codec Low Complexity
Идентификатор кодека                     : mp4a-40-2
Продолжительность                        : 2 ч. 26 м.
Вид битрейта                             : Переменный
Битрейт                                  : 230 Кбит/сек
Максимальный битрейт                     : 402 Кбит/сек
Каналы                                   : 2 канала
Channel layout                           : L R
Частота                                  : 48,0 КГц
Частота кадров                           : 46,875 кадров/сек (1024 SPF)
Метод сжатия                             : С потерями
Размер потока                            : 240 Мбайт (1%)
Язык                                     : Russian
Default                                  : Да
Alternate group                          : 1
Дата кодирования                         : 2024-03-20 19:12:27 UTC
Дата пометки                             : 2024-03-20 19:23:18 UTC
Fallback From                            : 7
tagc                                     : public.main-program-content
Аудио #2
Идентификатор                            : 3
Формат                                   : AAC LC
Формат/Информация                        : Advanced Audio Codec Low Complexity
Идентификатор кодека                     : mp4a-40-2
Продолжительность                        : 2 ч. 26 м.
Вид битрейта                             : Переменный
Битрейт                                  : 230 Кбит/сек
Максимальный битрейт                     : 367 Кбит/сек
Каналы                                   : 2 канала
Channel layout                           : L R
Частота                                  : 48,0 КГц
Частота кадров                           : 46,875 кадров/сек (1024 SPF)
Метод сжатия                             : С потерями
Размер потока                            : 240 Мбайт (1%)
Язык                                     : Russian
Default                                  : Нет
Alternate group                          : 1
Дата кодирования                         : 2024-03-20 19:12:27 UTC
Дата пометки                             : 2024-03-20 19:23:18 UTC
Fallback From                            : 8
tagc                                     : public.auxiliary-content
Аудио #3
Идентификатор                            : 4
Формат                                   : AAC LC
Формат/Информация                        : Advanced Audio Codec Low Complexity
Идентификатор кодека                     : mp4a-40-2
Продолжительность                        : 2 ч. 26 м.
Вид битрейта                             : Переменный
Битрейт                                  : 230 Кбит/сек
Максимальный битрейт                     : 422 Кбит/сек
Каналы                                   : 2 канала
Channel layout                           : L R
Частота                                  : 48,0 КГц
Частота кадров                           : 46,875 кадров/сек (1024 SPF)
Метод сжатия                             : С потерями
Размер потока                            : 240 Мбайт (1%)
Язык                                     : Russian
Default                                  : Нет
Alternate group                          : 1
Дата кодирования                         : 2024-03-20 19:12:27 UTC
Дата пометки                             : 2024-03-20 19:23:18 UTC
Fallback From                            : 9
tagc                                     : public.auxiliary-content
Аудио #4
Идентификатор                            : 5
Формат                                   : AAC LC
Формат/Информация                        : Advanced Audio Codec Low Complexity
Идентификатор кодека                     : mp4a-40-2
Продолжительность                        : 2 ч. 26 м.
Вид битрейта                             : Переменный
Битрейт                                  : 181 Кбит/сек
Максимальный битрейт                     : 204 Кбит/сек
Каналы                                   : 2 канала
Channel layout                           : L R
Частота                                  : 48,0 КГц
Частота кадров                           : 46,875 кадров/сек (1024 SPF)
Метод сжатия                             : С потерями
Размер потока                            : 189 Мбайт (1%)
Язык                                     : Ukrainian
Default                                  : Нет
Alternate group                          : 1
Дата кодирования                         : 2024-03-20 19:12:27 UTC
Дата пометки                             : 2024-03-20 19:23:18 UTC
tagc                                     : public.main-program-content
Аудио #5
Идентификатор                            : 6
Формат                                   : AAC LC
Формат/Информация                        : Advanced Audio Codec Low Complexity
Идентификатор кодека                     : mp4a-40-2
Продолжительность                        : 2 ч. 26 м.
Вид битрейта                             : Переменный
Битрейт                                  : 230 Кбит/сек
Максимальный битрейт                     : 403 Кбит/сек
Каналы                                   : 2 канала
Channel layout                           : L R
Частота                                  : 48,0 КГц
Частота кадров                           : 46,875 кадров/сек (1024 SPF)
Метод сжатия                             : С потерями
Размер потока                            : 240 Мбайт (1%)
Язык                                     : English
Default                                  : Нет
Alternate group                          : 1
Дата кодирования                         : 2024-03-20 19:12:27 UTC
Дата пометки                             : 2024-03-20 19:23:18 UTC
Fallback From                            : 10
tagc                                     : public.main-program-content
Аудио #6
Идентификатор                            : 7
Формат                                   : AC-3
Формат/Информация                        : Audio Coding 3
Коммерческое название                    : Dolby Digital
Идентификатор кодека                     : ac-3
Продолжительность                        : 2 ч. 26 м.
Вид битрейта                             : Постоянный
Битрейт                                  : 640 Кбит/сек
Каналы                                   : 6 каналов
Channel layout                           : L R C LFE Ls Rs
Частота                                  : 48,0 КГц
Частота кадров                           : 31,250 кадров/сек (1536 SPF)
Метод сжатия                             : С потерями
Размер потока                            : 669 Мбайт (4%)
Язык                                     : Russian
Service kind                             : Complete Main
Default                                  : Inherited From: 2
Alternate group                          : 1
Дата кодирования                         : 2024-03-20 19:12:27 UTC
Дата пометки                             : 2024-03-20 19:23:18 UTC
Fallback To                              : 2
tagc                                     : public.main-program-content
Аудио #7
Идентификатор                            : 8
Формат                                   : AC-3
Формат/Информация                        : Audio Coding 3
Коммерческое название                    : Dolby Digital
Идентификатор кодека                     : ac-3
Продолжительность                        : 2 ч. 26 м.
Вид битрейта                             : Постоянный
Битрейт                                  : 384 Кбит/сек
Каналы                                   : 6 каналов
Channel layout                           : L R C LFE Ls Rs
Частота                                  : 48,0 КГц
Частота кадров                           : 31,250 кадров/сек (1536 SPF)
Метод сжатия                             : С потерями
Размер потока                            : 401 Мбайт (2%)
Язык                                     : Russian
Service kind                             : Complete Main
Default                                  : Нет
Alternate group                          : 1
Дата кодирования                         : 2024-03-20 19:12:27 UTC
Дата пометки                             : 2024-03-20 19:23:18 UTC
Fallback To                              : 3
tagc                                     : public.auxiliary-content
Аудио #8
Идентификатор                            : 9
Формат                                   : AC-3
Формат/Информация                        : Audio Coding 3
Коммерческое название                    : Dolby Digital
Идентификатор кодека                     : ac-3
Продолжительность                        : 2 ч. 26 м.
Вид битрейта                             : Постоянный
Битрейт                                  : 640 Кбит/сек
Каналы                                   : 6 каналов
Channel layout                           : L R C LFE Ls Rs
Частота                                  : 48,0 КГц
Частота кадров                           : 31,250 кадров/сек (1536 SPF)
Метод сжатия                             : С потерями
Размер потока                            : 669 Мбайт (4%)
Язык                                     : Russian
Service kind                             : Complete Main
Default                                  : Нет
Alternate group                          : 1
Дата кодирования                         : 2024-03-20 19:12:27 UTC
Дата пометки                             : 2024-03-20 19:23:18 UTC
Fallback To                              : 4
tagc                                     : public.auxiliary-content
Аудио #9
Идентификатор                            : 10
Формат                                   : AC-3
Формат/Информация                        : Audio Coding 3
Коммерческое название                    : Dolby Digital
Идентификатор кодека                     : ac-3
Продолжительность                        : 2 ч. 26 м.
Вид битрейта                             : Постоянный
Битрейт                                  : 640 Кбит/сек
Каналы                                   : 6 каналов
Channel layout                           : L R C LFE Ls Rs
Частота                                  : 48,0 КГц
Частота кадров                           : 31,250 кадров/сек (1536 SPF)
Метод сжатия                             : С потерями
Размер потока                            : 669 Мбайт (4%)
Язык                                     : English
Service kind                             : Complete Main
Default                                  : Нет
Alternate group                          : 1
Дата кодирования                         : 2024-03-20 19:12:27 UTC
Дата пометки                             : 2024-03-20 19:23:18 UTC
Fallback To                              : 6
tagc                                     : public.main-program-content
Текст #1
Идентификатор                            : 11
Формат                                   : Timed Text
Режим смешивания                         : sbtl
Идентификатор кодека                     : tx3g
Продолжительность                        : 2 ч. 21 м.
Вид битрейта                             : Переменный
Битрейт                                  : 146 бит/сек
Частота кадров                           : 0,545 кадр/сек
Размер потока                            : 151 Кбайт (0%)
Язык                                     : Russian
Default                                  : Да
Forced                                   : Нет
Alternate group                          : 2
Дата кодирования                         : 2024-03-20 19:12:27 UTC
Дата пометки                             : 2024-03-20 19:23:18 UTC
Count of events                          : 2326
tagc                                     : public.main-program-content
Текст #2
Идентификатор                            : 12
Формат                                   : Timed Text
Режим смешивания                         : sbtl
Идентификатор кодека                     : tx3g
Продолжительность                        : 2 ч. 21 м.
Вид битрейта                             : Переменный
Битрейт                                  : 79 бит/сек
Частота кадров                           : 0,485 кадр/сек
Размер потока                            : 82,3 Кбайт (0%)
Язык                                     : English
Default                                  : Нет
Forced                                   : Нет
Alternate group                          : 2
Дата кодирования                         : 2024-03-20 19:12:27 UTC
Дата пометки                             : 2024-03-20 19:23:18 UTC
Count of events                          : 2068
tagc                                     : public.main-program-content
Меню
Идентификатор                            : 13
Формат                                   : Timed Text
Идентификатор кодека                     : text
Продолжительность                        : 2 ч. 26 м.
Язык                                     : English
Дата кодирования                         : 2024-03-20 19:23:18 UTC
Дата пометки                             : 2024-03-20 19:23:18 UTC
Вид битрейта                             : CBR
Menu For                                 : 1
00:00:00.000                             : Chapter 01
00:07:20.272                             : Chapter 02
00:16:35.953                             : Chapter 03
00:25:31.987                             : Chapter 04
00:37:06.724                             : Chapter 05
00:48:00.752                             : Chapter 06
00:55:04.718                             : Chapter 07
01:08:51.460                             : Chapter 08
01:16:06.311                             : Chapter 09
01:27:29.994                             : Chapter 10
01:35:22.425                             : Chapter 11
01:41:23.034                             : Chapter 12
01:46:49.986                             : Chapter 13
01:56:24.477                             : Chapter 14
02:03:13.719                             : Chapter 15
02:10:47.673                             : Chapter 16
02:16:20.672                             : Chapter 17
02:19:51.466                             : Chapter 18
Вид битрейта                             : Постоянный

Tunes Meta Tags:

Код:
Name: 1941
Artist: Steven Spielberg
Media Kind: Movies
HD Video: 1080p
Genre: комедия, военный
Release Date: 1979-12-14T12:00:00Z
Long Description: Комедийный фильм о панике в Лос-Анджелесе после известий о нападении японцев на Перл-Харбор и о приближении японской подводной лодки к берегам Калифорнии с заданием уничтожить Голливуд.
Rating: mpaa|PG|200|
Studio: Columbia Pictures, A-Team, Universal Pictures
Cast: Dan Aykroyd, Ned Beatty, John Belushi, Lorraine Gary, Murray Hamilton, Christopher Lee, Tim Matheson, Toshirō Mifune, Warren Oates, Robert Stack, Treat Williams, Nancy Allen, Lucille Benson, Jordan Brian, John Candy, Elisha Cook Jr., Eddie Deezen, Bobby Di Cicco, Dianne Kay, Perry Lang, Patti LuPone, J. Patrick McNamara, Frank McRae, Steven Mond, Slim Pickens, Wendie Jo Sperber, Lionel Stander, Dub Taylor, Iggie Wolfington, Christian Zika, Joe Flaherty, David L. Lander, Michael McKean, Susan Backlinie, E. Hampton Beagle, Deborah Benson, Don Calfa, Dave Cameron, Vito Carenzo, Mark Carlton, Gary Carlos Cervantes, Paul Cloud, Luis Contreras, Carol Culver, Lucinda Dooling, Gray Frederickson, Brian Frishman, Samuel Fuller, Marjorie Gaines, Dian Gallup, Denise Gallup, Trish Garland, Barbara Gannen, Brad Gorman, Jerry Hardin, Diane Hardin, Robert Houston, Audrey Landers, John Landis, Mark Marias, John McKee, Ronnie McMillan, Dan McNally, Dick Miller, Akio Mitamura, Antoinette Molinari, Walter Olkewicz, Mickey Rourke, Whitney Rydbeck, Donovan Scott, Kerry Sherman, Hiroshi Shimizu, Geno Silva, Rita Taggart, Maureen Teefy, Andy Tennant, Jack Thibeau, Galen Thompson, Frankie Verroca, John Voldstad, Carol Ann Williams, Jenny Williams, James Caan, Penny Marshall
Director: Steven Spielberg
Producers: Buzz Feitshans
Executive Producer: John Milius
Screenwriters: Robert Zemeckis, Robert Zemeckis, John Milius, Bob Gale, Bob Gale
Composer: John Williams

Знаете ли вы, что…

• Большую часть фильма снимал оператор Уильям Э. Фрэйкер (William A. Fraker), но из-за разногласий со Стивеном Спилбергом (Steven Spielberg) и Джоном Милиусом (John Milius) он был уволен. Фильм доснимал Фрэнк Стэнли (Frank Stanley).
• Предполагалось, что при демонстрации картины в кинотеатрах плату будут брать после окончания показа, как это практиковалось в 1940-х годах.
• Рабочее название картины – «Ночь японской атаки» (The Night the Japs Attacked).
• Оба автора сценария Роберт Зэмекис (Robert Zemeckis), Боб Гэйл (Bob Gale) посещали киношколу Университета Южной Калифорнии (University of Southern California), президента которого звали Руфус фон Кляйншмидт (Rufus von Kleinschmidt). Эту необычную фамилию они использовали в фильме для немецкого капитана Вольфганга фон Кляйншмидта (Кристофер Ли).
• Роль генерала Ситвелла Стивеном Спилбергом (Steven Spielberg) предлагалась актерам Джону Уэйну (John Wayne) и Чарлтону Хестону (Charlton Heston). Оба отказались от предложения из-за непатриотического отношения режиссера к ветеранам второй мировой войны.
• Заключительная сцена фильма с разваливающимся домом Дугласа Уорда требовала долгой и основательной подготовки, и ее съемка столько раз переносилась, что члены съемочной группы даже заключили пари на дату и время начала съемок этого эпизода. И пари выиграл Дэн Эйкройд (Dan Aykroyd).
• Картина снималась в Лос-Анджелесе, Малибу, пустыне Мохаве, Санта-Монике (все штат Калифорния) и на «Золотом берегу» в Орегоне (начальная сцена со всплытием субмарины).
• Съемочные дни: 23 октября 1978 года – 16 мая 1979 года.
• История, показанная в картине, отталкивается от действительно имевшего место случая.
• Режиссёрский вариант фильма имеет хронометраж 146 минут.

Скриншоты:

-
Релиз подготовлен для просмотра на Apple TV, iPad, iPhone, iPod Touch.
Для просмотра данного релиза на компьютере с ОС Windows рекомендуется использовать VLC media player
Download

Скачать .torrent файл

Сайт не распространяет и не хранит электронные версии произведений, а лишь предоставляет доступ к создаваемому пользователями каталогу ссылок на торрент-файлы, которые содержат только списки хеш-сумм

 
logo
Error